Browse Collections Artists Sources   Search Dates

Add Show    List Management    Help


Garcia 12/17/81
Keystone Palo Alto, Palo Alto, CA
Comments Add Comment    Source Collectors    Add to Collection    Add to Want List    History
Source # 137842 Other Sources
Entered by Joe Jupille
Checksums jgb1981-12-17.md5 , jgb1981-12-17.ffp
Disc Counts 0 / 0
Media Size Compressed: 463.38 MB (485888000 bytes)
Uncompressed: 785.89 MB (824063536 bytes)
Date Circulated
Date Added
02/18/2017
02/18/2017
Source Summary JGB; flac1644; Partial, Unknown AUD kindly provided by wk & http://jgmf.blogspot.com/ Transfer: Maxell XLII > Nakamichi CR-5A > Edirol FA-66 > Wavelab 2448 > R8Brain > CD-Wave > TLH > FLAC 1644 tagged. Transfer by Andrew F. 02/2017 
Source Information - Download Text | Download Zip
JERRY GARCIA BAND
Keystone
Palo Alto CA
12-17-1981

xxxxx How Sweet It Is (missing)
xxxxx They Love Each Other (missing)
xxxxx Simple Twist of Fate (missing)
s1t01 I Second That Emotion
s1t02 Tangled Up in Blue

s2t01 The Harder They Come
s2t02 Don't Let Go
s2t03 Valerie
s2t04 The Night They Drove Old Dixie Down
s2t05 Dear Prudence
s2t06 Midnight Moonlight

Unknown AUD kindly provided by wk & http://jgmf.blogspot.com/

Transfer: Maxell XLII > Nakamichi CR-5A > Edirol FA-66 > Wavelab 2448 >
R8Brain > CD-Wave > TLH > FLAC 1644 tagged. Transfer by Andrew F. 02/2017

    length     expanded size    cdr  WAVE problems  fmt   ratio  filename
     9:04.74       96135692 B   ---   --   ---xx   flac  0.5876  jgb1981-12-17s1t01.flac
     9:31.39      100816172 B   ---   --   ---xx   flac  0.6020  jgb1981-12-17s1t02.flac
    13:09.46      139287836 B   ---   --   ---xx   flac  0.5844  jgb1981-12-17s2t01.flac
    11:20.55      120081404 B   ---   --   ---xx   flac  0.5759  jgb1981-12-17s2t02.flac
     7:12.21       76254236 B   ---   --   ---xx   flac  0.5893  jgb1981-12-17s2t03.flac
     8:08.01       86085596 B   ---   --   ---xx   flac  0.5856  jgb1981-12-17s2t04.flac
    12:10.21      128821436 B   ---   --   ---xx   flac  0.5949  jgb1981-12-17s2t05.flac
     7:14.10       76581164 B   ---   --   ---xx   flac  0.6025  jgb1981-12-17s2t06.flac
    77:51.42      824063536 B                            0.5896  (8 files)

No errors occured.


Show Checksums
jgb1981-12-17.md5
5fc4ea566325714ed0e7a1477f16dc90 *jgb1981-12-17s1t01.flac
21537f0dfabc27fda8a04f4013ea28ba *jgb1981-12-17s1t02.flac
1fa221be0c01d3c753a77ec4504ae39f *jgb1981-12-17s2t01.flac
7d52c433b2c9975eb1d517aba97e3a61 *jgb1981-12-17s2t02.flac
d0ea7a797a2e5ceba377e535cdf87ea3 *jgb1981-12-17s2t03.flac
e029356a66f7a575806be33b1d7120b3 *jgb1981-12-17s2t04.flac
8924e0403605922ad3c2b0387e7f131c *jgb1981-12-17s2t05.flac
e2855f4b3742a1ea5ec626ee508489cc *jgb1981-12-17s2t06.flac
jgb1981-12-17.ffp
jgb1981-12-17s1t01.flac:81c454e3c18af0c2acbef10455ad28f1
jgb1981-12-17s1t02.flac:2036bbb807ee439f2a3453db4b5b514d
jgb1981-12-17s2t01.flac:d6435cb54a8e89c3a8db2a17dec7d202
jgb1981-12-17s2t02.flac:ad3dfa1c4de1c9ff4cccc60cb626adeb
jgb1981-12-17s2t03.flac:004479a4a7f91aea09f98eb06db13fa7
jgb1981-12-17s2t04.flac:ec212f3150ad58d0bfc8b80d0f910905
jgb1981-12-17s2t05.flac:081353ce396c4fa6f272922d46a496d4
jgb1981-12-17s2t06.flac:eda6fa9e24028e5076e0fe1ffbb5ec40

Comments
Add Comment
Date User Comment