Browse Collections Artists Sources   Search Dates

Add Show    List Management    Help


Garcia 07/18/80
The Stone, San Francisco, CA
Comments Add Comment    Source Collectors    Add to Collection    Add to Want List    History
Source # 137878 Other Sources
Entered by Joe Jupille
Checksums jgb1980-07-18s2.md5 , jgb1980-07-18s2.ffp
Disc Counts 0 / 0
Media Size Compressed: 409.38 MB (429260800 bytes)
Uncompressed: 722.72 MB (757828776 bytes)
Date Circulated
Date Added
02/25/2017
02/25/2017
Source Summary JGB; flac1644; 2nd Set AUD (marked 3rd Gen) kindly provided by wk & http://jgmf.blogspot.com/ Transfer: Maxell XLII > Nakamichi CR-5A > Edirol FA-66 > Wavelab 2448 > R8Brain > CD-Wave > TLH > FLAC 1644 tagged. Transfer by Andrew F. 02/2017 
Source Information - Download Text | Download Zip
JERRY GARCIA BAND
The Stone
San Francisco CA
07-18-1980
Second Set

s2t01 That's What Love Will Make You Do
s2t02 I'll Take a Melody
s2t03 They Love Each Other
s2t04 Mission in the Rain
s2t05 Russian Lullaby
s2t06 Midnight Moonlight

AUD (marked 3rd Gen) kindly provided by wk & http://jgmf.blogspot.com/

Transfer: Maxell XLII > Nakamichi CR-5A > Edirol FA-66 > Wavelab 2448 >
R8Brain > CD-Wave > TLH > FLAC 1644 tagged. Transfer by Andrew F. 02/2017

Note: TWLWMYD is mono, the remainder of the recording is stereo. Contrary
to web-lists, the tape J-card lists TWLWMYD as final song of the 1st Set.
There's a bit of over-saturation at times in the guitar solos. TWLWMYD,
Melody, and Russian Lullaby slightly clipped at the start of each track.


    length     expanded size    cdr  WAVE problems  fmt   ratio  filename
    10:31.08      111327260 B   ---   --   ---xx   flac  0.5485  jgb1980-07-18s2t01.flac
    14:34.58      154310060 B   ---   --   ---xx   flac  0.5781  jgb1980-07-18s2t02.flac
     9:21.28       99026300 B   ---   --   ---xx   flac  0.5657  jgb1980-07-18s2t03.flac
    11:22.11      120330716 B   ---   --   ---xx   flac  0.5900  jgb1980-07-18s2t04.flac
    15:20.42      162386828 B   ---   --   ---xx   flac  0.5283  jgb1980-07-18s2t05.flac
    10:26.09      110447612 B   ---   --   ---xx   flac  0.5988  jgb1980-07-18s2t06.flac
    71:36.06      757828776 B                            0.5664  (6 files)

No errors occured.


Show Checksums
jgb1980-07-18s2.md5
4e3ca9b1b971a33c6dbc244e246f55c8 *jgb1980-07-18s2t01.flac
dcfd6dbcf4342f1fce899a7c8cfe22ed *jgb1980-07-18s2t02.flac
36546c4efc22dece395aa4afc37c5638 *jgb1980-07-18s2t03.flac
d8012bb35388de172b96fb016111b503 *jgb1980-07-18s2t04.flac
807311cd7a564b427ada5afeda5033f9 *jgb1980-07-18s2t05.flac
1ab0e07c3175ebb60248012927f3e890 *jgb1980-07-18s2t06.flac
jgb1980-07-18s2.ffp
jgb1980-07-18s2t01.flac:e3d964083411e30b1847105094a541ac
jgb1980-07-18s2t02.flac:30e210e70cc6be25e376b778a2333b67
jgb1980-07-18s2t03.flac:714e8bf1b0edefddf9f332cd8e8556e2
jgb1980-07-18s2t04.flac:0e1a983fc2db4b28d90bf4a08fb50b70
jgb1980-07-18s2t05.flac:a00ba8c47036c0f86ce337450a5f6b3d
jgb1980-07-18s2t06.flac:40368ec82a8ba486141bee4c5f45f00c

Comments
Add Comment
Other Sources (comments)
JGB; flac1644; 1st Set;... (0)
Date User Comment