Browse Collections Artists Sources   Search Dates

Add Show    List Management    Help


Garcia 11/09/91
Hampton Coliseum, Hampton, VA
Comments Add Comment    Source Collectors    Add to Collection    Add to Want List    History
Source # 137883 Other Sources
Entered by Joe Jupille
Checksums Garcia1991-11-09.ffp , Gracia1991-11-09.md5
Disc Counts 0 / 0
Media Size
Uncompressed: 1.69 GB (1810834800 bytes)
Date Circulated
Date Added
02/26/2017
02/26/2017
Source Summary JGB; flac1648; FOB Schoeps MK4s > Dat (Panasonic SV-255/48k); edited and mastered SIRMick February 2017. 
Source Information - Download Text | Download Zip
Jerry Garcia Band
Hampton Coliseum
Hampton, VA
11/09/1991


Source: (FOB) Schoeps MK4s > Dat (Panasonic SV-255/48k)
Transfer: Dat (Sony PCM-R500) > Sound Devices 744T > WAV
Lineage: wav > Adobe Audition 3.0.1 > iZotope RX4 Advanced > iZotope Ozone 5 Advanced >
         CD Wave > TLH > Flac16


Set I

01   crowd/tuning
02   How Sweet It Is (To Be Loved By You)
03   He Ain't Give You None
04   You Never Can Tell (C'est La Vie)
05   Run For the Roses
06   The Night They Drove Old Dixie Down
07   I Second That Emotion
08   My Sisters And Brothers
09   Ain't No Bread In The Breadbox


Set II

01   crowd/tuning
02   Bright Side Of The Road
03   Shining Star
04   Waiting For A Miracle
05   band intros
06   Think
07   I Shall Be Released
08   Don't Let Go
09   Midnight Moonlight
10   encore break

encore

11   (What A) Wonderful World




Jerry Garcia - guitar, vocals
John Kahn - bass
Melvin Seals - keyboards
David Kemper - drums
Jaclyn LaBranch - backing vocals
Gloria Jones - backing vocals

guest

Bruce Hornsby - Electric Piano




Thanks to Charlie Miller for the transfer and passing this source to me.


edited and mastered
SIRMick
February 2017


shntool output:

    length     expanded size    cdr  WAVE problems  fmt   ratio  filename
     1:52.413      21583404 B   cxx   --   ---xx   flac  0.4130  jgb1991-11-09s1t01.flac
     7:38.013      87938604 B   cxx   --   ---xx   flac  0.5658  jgb1991-11-09s1t02.flac
    10:27.893     120555564 B   cxx   --   ---xx   flac  0.5375  jgb1991-11-09s1t03.flac
    10:39.067     122700844 B   cxx   --   ---xx   flac  0.5474  jgb1991-11-09s1t04.flac
     5:56.493      68446764 B   cxx   --   ---xx   flac  0.5695  jgb1991-11-09s1t05.flac
    10:52.240     125230124 B   cxx   --   ---xx   flac  0.5360  jgb1991-11-09s1t06.flac
     9:41.147     111580204 B   cxx   --   ---xx   flac  0.5929  jgb1991-11-09s1t07.flac
     4:38.093      53393964 B   cxx   --   ---xx   flac  0.5506  jgb1991-11-09s1t08.flac
     9:19.120     107351084 B   cxx   --   ---xx   flac  0.6038  jgb1991-11-09s1t09.flac
     1:25.360      16389164 B   cxx   --   ---xx   flac  0.4280  jgb1991-11-09s2t01.flac
     7:37.947      87925804 B   cxx   --   ---xx   flac  0.5383  jgb1991-11-09s2t02.flac
    15:14.280     175541804 B   cxx   --   ---xx   flac  0.5279  jgb1991-11-09s2t03.flac
     6:39.040      76615724 B   cxx   --   ---xx   flac  0.5710  jgb1991-11-09s2t04.flac
     0:50.187       9635884 B   cxx   --   ---xx   flac  0.5361  jgb1991-11-09s2t05.flac
    10:17.000     118464044 B   cxx   --   ---xx   flac  0.5740  jgb1991-11-09s2t06.flac
    10:40.333     122944044 B   cxx   --   ---xx   flac  0.5034  jgb1991-11-09s2t07.flac
    16:07.960     185848364 B   cxx   --   ---xx   flac  0.5504  jgb1991-11-09s2t08.flac
     6:32.507      75361324 B   cxx   --   ---xx   flac  0.6001  jgb1991-11-09s2t09.flac
     2:39.707      30663724 B   cxx   --   ---xx   flac  0.5174  jgb1991-11-09s2t10.flac
     8:02.627      92664364 B   cxx   --   ---xx   flac  0.4940  jgb1991-11-09s2t11.flac
   157:11.427    1810834800 B                            0.5479  (20 files)

Show Checksums
Garcia1991-11-09.ffp
jgb1991-11-09s1t01.flac:d6ece69cda25191b6b53f28e18ff5b49
jgb1991-11-09s1t02.flac:c044714fe61fe3a39a957413bb145dda
jgb1991-11-09s1t03.flac:26d1652756a1c041b33a9949e3089b4e
jgb1991-11-09s1t04.flac:a31d3f2328194b165505a9ccbbe4ad17
jgb1991-11-09s1t05.flac:824eb759f87ee226a0721471c8d8a3ee
jgb1991-11-09s1t06.flac:d52b26c9a8047c32a9c76072e0ad07f3
jgb1991-11-09s1t07.flac:d97807387ded6c592a863550ef958004
jgb1991-11-09s1t08.flac:1be7fcba3cfc131c4753e3b4bcb33bf4
jgb1991-11-09s1t09.flac:9a95b95688504a53a4421df876f03f14
jgb1991-11-09s2t01.flac:ed8464fc720f24fe79c9c904e10e1cac
jgb1991-11-09s2t02.flac:6046ffb14759533e4aa00ab10abb957b
jgb1991-11-09s2t03.flac:d1ae3f76da8d7c5b72a2ab3db7f0d075
jgb1991-11-09s2t04.flac:9f3e7194f970c1e07f9b43b5f56e9c4f
jgb1991-11-09s2t05.flac:a51bb16056de1fee2b611e275a6d2d7f
jgb1991-11-09s2t06.flac:eb291e37d7cbe851339e0c44c2fbb40d
jgb1991-11-09s2t07.flac:be8d3b8e70cc4998c5b9b622b39ed8ad
jgb1991-11-09s2t08.flac:5c295f394cbc163172fab6765720bcfa
jgb1991-11-09s2t09.flac:6a221b5267768baa902cb32a2d5855a1
jgb1991-11-09s2t10.flac:137417abfe6562a67de63da63a5fe1c6
jgb1991-11-09s2t11.flac:8a04f706e385b615d9505ef0d129e943
Gracia1991-11-09.md5
ec7b523347adcfaa0ff846cdb2332485 *jgb1991-11-09s1t01.flac
2c1b76bb8f1175307c09bb2f19292a91 *jgb1991-11-09s1t02.flac
ecda3114f4dfbbe81fb070f30642db90 *jgb1991-11-09s1t03.flac
b64e45fb090b56910975b1eca09a6e45 *jgb1991-11-09s1t04.flac
b7485ee33d006bfa50dd16917181cc96 *jgb1991-11-09s1t05.flac
25095e337c9bf29c5fec340fdc43e3c7 *jgb1991-11-09s1t06.flac
53da6486d7700868e820b10168343261 *jgb1991-11-09s1t07.flac
0dbecec15324a2853842d7e292bb6b01 *jgb1991-11-09s1t08.flac
9387aa2eb658073d8f8dfa8e3be070e3 *jgb1991-11-09s1t09.flac
260624834feafc4e99025b6baa2a420e *jgb1991-11-09s2t01.flac
f7fba83cdc659b8dba4d7e77a93afc61 *jgb1991-11-09s2t02.flac
730d55400d69d1ad7793bc4c772d1e0b *jgb1991-11-09s2t03.flac
463f2269b6f87602e4b540d1076c1d16 *jgb1991-11-09s2t04.flac
6662f53f809f3c670fefa7a37f0ff60e *jgb1991-11-09s2t05.flac
d52b688e31af7d53d13d605c61c6de0b *jgb1991-11-09s2t06.flac
836acc9d1c94532c541f3caec598de4d *jgb1991-11-09s2t07.flac
2cddae9a7e49509cb6c9a4ae27101a23 *jgb1991-11-09s2t08.flac
e7b441325c5defc98a8fa72c0ea13dae *jgb1991-11-09s2t09.flac
8561042e422bc8370fce1db73f843acb *jgb1991-11-09s2t10.flac
5aa622208029ced10b16cdf6363077fa *jgb1991-11-09s2t11.flac

Comments
Add Comment
Other Sources (comments)
Jerry Garcia Band: Schoeps... (2) JGB: set1: ATM31->D5 (90... (0)
Date User Comment