Browse Collections Artists Sources   Search Dates

Add Show    List Management    Help


Garcia 09/19/81
The Stone, San Francisco, CA
Comments Add Comment    Source Collectors    Add to Collection    Add to Want List    History
Source # 137886 Other Sources
Entered by Joe Jupille
Checksums jgb1981-09-19.md5 , jgb1981-09-19.ffp
Disc Counts 0 / 0
Media Size Compressed: 286.29 MB (300195840 bytes)
Uncompressed: 888.2 MB (931340696 bytes)
Date Circulated
Date Added
02/26/2017
02/26/2017
Source Summary JGB; flac1644; Partial, Unknown AUD (marked 1st Gen) kindly provided by wk & http://jgmf.blogspot.com/ Transfer: Maxell XLII > Nakamichi CR-5A > Edirol FA-66 > Wavelab 2448 > R8Brain > CD-Wave > TLH > FLAC 1644 tagged. Transfer by Andrew F. 02/2017 
Source Information - Download Text | Download Zip
JERRY GARCIA BAND
The Stone
San Francisco CA
09-19-1981

s1t01 How Sweet It Is
s1t02 Sugaree
s1t03 Mystery Train
s1t04 Love in the Afternoon
s1t05 Mississippi Moon
s1t06 I Second that Emotion

s2t01 The Way You Do the Things You Do
s2t02 Knockin' On Heaven's Door
s2t03 Valerie
s2t04 The Harder They Come
xxxxx Russian Lullaby (missing)
xxxxx Tangled Up in Blue (missing)

AUD (marked 1st Gen) kindly provided by wk & http://jgmf.blogspot.com/

Transfer: Maxell XLII > Nakamichi CR-5A > Edirol FA-66 > Wavelab 2448 >
R8Brain > CD-Wave > TLH > FLAC 1644 tagged. Transfer by Andrew F. 02/2017

Note: Lo-Fi mono, with tight edits, several songs clip in & out abruptly.

    length     expanded size    cdr  WAVE problems  fmt   ratio  filename
     7:15.73       76905740 B   ---   --   ---xx   flac  0.3227  jgb1981-09-19s1t01.flac
     9:32.38      100990220 B   ---   --   ---xx   flac  0.3245  jgb1981-09-19s1t02.flac
     8:45.60       92751164 B   ---   --   ---xx   flac  0.3294  jgb1981-09-19s1t03.flac
     8:21.68       88536380 B   ---   --   ---xx   flac  0.3218  jgb1981-09-19s1t04.flac
     9:58.71      105654236 B   ---   --   ---xx   flac  0.3172  jgb1981-09-19s1t05.flac
     9:51.31      104325356 B   ---   --   ---xx   flac  0.3262  jgb1981-09-19s1t06.flac
     5:17.65       56071724 B   ---   --   ---xx   flac  0.3221  jgb1981-09-19s2t01.flac
    12:01.39      127276172 B   ---   --   ---xx   flac  0.3151  jgb1981-09-19s2t02.flac
     6:26.27       68153948 B   ---   --   ---xx   flac  0.3219  jgb1981-09-19s2t03.flac
    10:27.31      110675756 B   ---   --   ---xx   flac  0.3243  jgb1981-09-19s2t04.flac
    87:59.53      931340696 B                            0.3223  (10 files)

No errors occured.


Show Checksums
jgb1981-09-19.md5
100e477139d7924bcecb48a5ba5829e1 *jgb1981-09-19s1t01.flac
3e91d5c926c3721b68c30cc4cf869825 *jgb1981-09-19s1t02.flac
4e245cc787ece3161a2bcb714dab0aa2 *jgb1981-09-19s1t03.flac
2513eb48b19f0cde82165d76b0dbae90 *jgb1981-09-19s1t04.flac
e754041f3f1c4a1b6a41ebe498908565 *jgb1981-09-19s1t05.flac
0dd8b30252b4e71da47a30504d7e187e *jgb1981-09-19s1t06.flac
5b2fcf47ebeb73a4640e7763e070218a *jgb1981-09-19s2t01.flac
a7db76b7f5b35c15d5b6f80bb25cfcd5 *jgb1981-09-19s2t02.flac
a4565c4ba2e6bf2906587d1bf4b0f298 *jgb1981-09-19s2t03.flac
ae9eebe0e747b0f3380e0eaf24329312 *jgb1981-09-19s2t04.flac
jgb1981-09-19.ffp
jgb1981-09-19s1t01.flac:e5022c93140c2deb3302e28628132dbe
jgb1981-09-19s1t02.flac:fe91c3778e2c4fa4c158625f15f247d7
jgb1981-09-19s1t03.flac:22ef033ec089cc5cfd32a14b0446b8f9
jgb1981-09-19s1t04.flac:d5c08dab7d468fa15b0a9d1fc990526d
jgb1981-09-19s1t05.flac:a5066dd56a27a03658a6dd465b591c46
jgb1981-09-19s1t06.flac:1eb3f6ca0ebc6dd24a3e6a19df115d8f
jgb1981-09-19s2t01.flac:8b8ac4ab124fdfa94c3143d76d0106c3
jgb1981-09-19s2t02.flac:674200abde16b4951ff0c818c27e0172
jgb1981-09-19s2t03.flac:e26a71bd52541afdd79702c730828c47
jgb1981-09-19s2t04.flac:c86948923cd13b43e138c1e52cbd6671

Comments
Add Comment
Date User Comment