Browse Collections Artists Sources   Search Dates

Add Show    List Management    Help


Grateful Dead 06/16/93
Freedom Hall, Louisville, KY
Comments Add Comment    Source Collectors    Add to Collection    Add to Want List    History
Source # 137894 Other Sources
Entered by Matt Vernon
Checksums ffp , flac-md5
Disc Counts 0 / 0
Media Size Compressed: 911.2 MB (955462451 bytes)
Uncompressed: 1.65 GB (1766343264 bytes)
Date Circulated
Date Added
03/01/2017
02/28/2017
Source Summary flac16/48kHz; Matrix: Source 1 (shnid 137335): Recording Info: SBD > Dat Master (Panasonic SV-3700/48k); Transfer Info: Dat Master (Sony R500) > Sound Devices 744T > Samplitude Pro X3 Suite > FLAC/48k; and Source 2 (shnid 131217): Recording info: FOB (20th Row)/Schoeps CMC 521's> Schoeps VMS 52 UB> Sony D-3 by Lance Deal; Transfer Info: Fostex D-5 (AES/BU)> Luminous Monarch> M-Audio Audiophile 2496 (s/pdif)> Audacity @ 16/48> 16/44> CD Wav (Tracking)> TLH (SBE's/Flac16/md5) 
  Archive
Source Information - Download Text | Download Zip
Grateful Dead
Freedom Hall - Louisville, KY
June 16, 1993


Matrix

Source 1 (shnid 137335):

Recording Info:
SBD > Dat Master (Panasonic SV-3700/48k)

Transfer Info:
Dat Master (Sony R500) > Sound Devices 744T > Samplitude Pro X3 Suite > FLAC/48k
(1 DVD FLAC)

All Transfers and Mastering By Charlie Miller
[email protected]
December 5, 2016


Source 2 (shnid 131217):

Recording info:
FOB (20th Row)/Schoeps CMC 521's> Schoeps VMS 52 UB> Sony D-3 by Lance Deal
Master DAT provided by Lance Deal

Transfer Info:
Fostex D-5 (AES/BU)> Luminous Monarch> M-Audio Audiophile 2496 (s/pdif)> Audacity @ 16/48> 16/44> CD Wav (Tracking)> TLH (SBE's/Flac16/md5)
Trasferred and liberated to etree.org on September 4, 2014 by Will Petty



Set 1:
01 crowd/tuning
02 Cold Rain and Snow
03 The Same Thing
04 Peggy-O
05 Just Like Tom Thumb's Blues
06 Rample on Rose
07 Eternity
08 Brown-Eyed Women
09 Easy Answers
10 Don't Ease Me In

Set 2:
11 Foolish Heart
12 Saint of Circumstance
13 Lazy River Road
14 Corrina
15 Drums
16 Space
17 I Need a Miracle
18 Stella Blue
19 Good Lovin'

Encore:
20 I Fought the Law



SHNTOOL output

    length     expanded size    cdr  WAVE problems  fmt   ratio  filename
     2:10.856      25124488 B   cxx   --   ---xx   flac  0.3968  01 crowd.flac
     5:59.878      69096568 B   cxx   --   ---xx   flac  0.5434  02 Cold Rain and Snow.flac
     7:12.149      82972668 B   cxx   --   ---xx   flac  0.5128  03 The Same Thing.flac
     6:37.550      76329668 B   cxx   --   ---xx   flac  0.5229  04 Peggy-O.flac
     6:45.517      77859276 B   cxx   --   ---xx   flac  0.5162  05 Just Like Tom Thumb's Blues.flac
     8:16.559      95339460 B   cxx   --   ---xx   flac  0.5131  06 Ramble on Rose.flac
    10:02.170     115616692 B   cxx   --   ---xx   flac  0.5241  07 Eternity.flac
     6:41.087      77008656 B   cxx   --   ---xx   flac  0.5300  08 Brown-Eyed Women.flac
     7:03.287      81271192 B   cxx   --   ---xx   flac  0.5482  09 Easy Answers.flac
     3:05.975      35707296 B   cxx   --   ---xx   flac  0.5577  10 Don't Ease Me In.flac
    13:24.632     154489380 B   cxx   --   ---xx   flac  0.5341  11 Foolish Heart.flac
     7:00.008      80641608 B   cxx   --   ---xx   flac  0.5573  12 Saint of Circumstance.flac
     6:58.771      80404152 B   cxx   --   ---xx   flac  0.5365  13 Lazy River Road.flac
    10:57.571     126253624 B   cxx   --   ---xx   flac  0.5388  14 Corrina.flac
    12:55.789     148951456 B   cxx   --   ---xx   flac  0.4491  15 Drums.flac
    13:08.816     151452628 B   cxx   --   ---xx   flac  0.4674  16 Space.flac
     4:49.595      55602220 B   cxx   --   ---xx   flac  0.5375  17 I Need a Miracle.flac
     8:30.736      98061396 B   cxx   --   ---xx   flac  0.5014  18 Stella Blue.flac
     8:30.613      98037648 B   cxx   --   ---xx   flac  0.5226  19 Good Lovin'.flac
     3:08.141      36123188 B   cxx   --   ---xx   flac  0.5436  20 I Fought the Law.flac
   153:19.700    1766343264 B                            0.5159  (20 files)



Matrix by [email protected]

Sources combined by set with shntool
Imported and mixed in Audacity 2.1.2
sbd source normalized to -1.0dB
aud source normalized to -4.0dB
Dithered and exported to 16-48 FLAC, level 8




Show Checksums
ffp
01 crowd.flac:685e18067fd93011f0d96e9ef5c24a39
02 Cold Rain and Snow.flac:1ed85b4c5e6227f2a3a0ba1dd41928b1
03 The Same Thing.flac:819d50bcc915f9a8924aba85d99bac9c
04 Peggy-O.flac:1bf33a37f0164faad074d33f1758ea94
05 Just Like Tom Thumb's Blues.flac:556d03c8c02007b1d376d0f7bd3908b3
06 Ramble on Rose.flac:8b7c25f533c89303a94a1182c2b4d578
07 Eternity.flac:e58078bb0e219db9eb19330665d2e7cb
08 Brown-Eyed Women.flac:8f536b0dc83493a4a703871156457e90
09 Easy Answers.flac:b07de164e729fcd0af28d7b6f326f33b
10 Don't Ease Me In.flac:b52fb2858454113f717717f44ee728e2
11 Foolish Heart.flac:29aaf8aa1990218630f6e85a45a4e8ec
12 Saint of Circumstance.flac:aaf93cc49639663538ae25a6012e3049
13 Lazy River Road.flac:03bc332a2fb3b2de272b7cecc94337bc
14 Corrina.flac:8f522950f7a5a3bfe52cd9fc490259bc
15 Drums.flac:ee68457d6ac863c978a41db2449871d2
16 Space.flac:0c47dd35780fea9fe11e50236f01ddd7
17 I Need a Miracle.flac:f1ab58179109de6b75945e8e1ae10c49
18 Stella Blue.flac:4bf7842548d0b005b39fe75ed254ada1
19 Good Lovin'.flac:50944c9595955c940f96e1a468965224
20 I Fought the Law.flac:908145537208218b7ff2a7187fe65ad9
flac-md5
9c38ae0bfd2d4d24c343585ea50ff143 *01 crowd.flac
e0faf91f9eb536d7790b7aaa6671f0f2 *02 Cold Rain and Snow.flac
5caf539cf272e34f56391e5b4cdc3505 *03 The Same Thing.flac
9c4154a7f4be6de957487c4f0ccd3923 *04 Peggy-O.flac
9cabd2ba79321bd2bb71c2d076e39eeb *05 Just Like Tom Thumb's Blues.flac
1e95117e2dccd09d583cec07533a3ee3 *06 Ramble on Rose.flac
1ac6964760dee810ca528aa33fa09183 *07 Eternity.flac
f9d8243d8233e24d27c81515e5634668 *08 Brown-Eyed Women.flac
090b082746df7550d3f61b1ae3e0355e *09 Easy Answers.flac
152d4c957ab410324cee92e2723bf618 *10 Don't Ease Me In.flac
115c261f5c6024f3ab9f96cbf14618e8 *11 Foolish Heart.flac
86c1150e0be52776303d87586ec4ab61 *12 Saint of Circumstance.flac
5f6ba1baba99fe657a600242c08f51ac *13 Lazy River Road.flac
e500bbac9ff3db73851856c1cf760fda *14 Corrina.flac
a1084e890e69cc626e6c59eb52857397 *15 Drums.flac
d91f77ba355293544d761249e4ce610d *16 Space.flac
5f12f6788855f53cd7d5ee9b274c05c9 *17 I Need a Miracle.flac
7a74826d79e282890f7200f53c30699b *18 Stella Blue.flac
7874711b24ec211477641f0c4cec0c48 *19 Good Lovin'.flac
e6dfb99e60c5407af84b55bc40085180 *20 I Fought the Law.flac

Comments
Add Comment
Other Sources (comments)
Taper Section Neumann TLM... (0) Nak 300's>sonyD3 at... (0) SBD>DAT>C>DAT>Samplitude>CD... (0) flac16; 4 x Nak... (0) flac16; Partial Set... (1) flac16; Source:... (0) flac16/48kHz; Master... (0) flac16; Master... (0) flac16; Source: FOB... (0) flac16/48kHz;... (0)
Date User Comment