Browse Collections Artists Sources   Search Dates

Add Show    List Management    Help


Grateful Dead 05/15/81
Athletic Center - Rutgers University, Piscataway, NJ
Comments Add Comment    Source Collectors    Add to Collection    Add to Want List    History
Source # 137907 Other Sources
Entered by Matt Vernon
Checksums flac-md5 , ffp
Disc Counts 0 / 0
Media Size Compressed: 1.12 GB (1207461796 bytes)
Date Circulated
Date Added
03/04/2017
03/04/2017
Source Summary flac16; 2 source matrix by Dusborne; Soundboard (Shnid:95751), Recording Info: SBD -> Master Cassette -> Reel -> Dat (48k),Transfer Info:Dat (Sony D8) -> Samplitude Professional v9.11 -> Adobe Audition v1.5 -> FLAC; and Audience (shnid:30113), MAC>DAT>CD,AKG CE-1 microphones > Uher CR-240 cassette deck, no dolby, TDK SA C90 cassettes.audience cassette master recorded by Kenny Mance; Transfer: MAC > Uher CR-240 > Sony PCM-M1(2/05). Sony PCM-R500 > HHB CDR830plus > EAC > Sound Forge 5.0 > CD Wave 1.71 > cd 
  Archive
Source Information - Download Text | Download Zip
Grateful Dead
May 15, 1981
Rutgers Athletic Center
Piscataway, NJ

2 Source Matrix

Soundboard (Shnid:95751)
-----------------------------------------------------------------------------------------
gd81-05-15.sbd.miller.95751.sbeok.flac16

Recording Info:
SBD -> Master Cassette -> Reel -> Dat (48k)

Transfer Info:
Dat (Sony D8) -> Samplitude Professional v9.11 -> Adobe Audition v1.5 -> FLAC
(3 Discs Audio / 2 Discs FLAC)

All Transfers and Mastering By Charlie Miller
[email protected]
November 10, 2008

Patch Info:
AKG CE-1 -> Master Cassette -> Dat -> CD (shnid=30113) supplies:
Looks Like Rain (7:31 - end of track)
Don't Ease Me In (complete track)
Eyes Of The World (5:29 - 5:50)
Black Peter (8:53 - end of track)
Sugar Magnolia (0:00 - 0:02)

Notes:
-- All disc changes are seamless
-- This is a much needed fix of shnid=86783
-- I fixed the patches, corrected the pitch and swapped the channels
-- The patch source was also pitch corrected
-- Thanks to Joe B. Jones for his help with the pitch correction

Audience (shnid:30113)
-------------------------------------------------------------------------------
gd81-05-15.030113.akg.mance-cohen.sbeok.t-flac16

MAC>DAT>CD

AKG CE-1 microphones > Uher CR-240 cassette deck, no dolby, TDK SA C90 cassettes.
audience cassette master recorded by Kenny Mance.

Transfer: MAC > Uher CR-240 > Sony PCM-M1(2/05). Sony PCM-R500 > HHB CDR830plus >
EAC > Sound Forge 5.0 > CD Wave 1.71 > cd. *1/2 step patch source:

(downloaded 4/2005 from tol- gd1981-05-15.senn.munder.9008)
fob Senn 421>Cm>Dat>CD (0 to 6:48).
a-d transfer 2/05, editing, tracking and shn conversion by Anne Cohen 4/05.

Notes:
- static d1t1 tuning
- Sound Forge 5.0 used for fades, gaps, first set tape flip splice, and patches:
1/2 step patch d1t1 (0 to 6:48), tuning and opening Scarlet d2t4 (1st min.) patch
source: fob Senn 421>Cm>Dat>CD
- Thanks to Kenny Mance for making this tasty tape! (and to the patch source taper, too).
Enjoy the show!  : )  Anne

Flac encoding notes:
All processing with Trader's Little Helper
Shn - st5 generated
Shn > Flac ( level 8 )
Flac - st5 generated and matched to Shn st5

Bill Proctor 7-23-12
------------------------------------------------------------------------------------------
---Thank you Charlie Miller for your work on the SBD.
---Thank you Joe B. Jones for pitch correction on the SBD.
---Thank you Kenny Mance for recording the show.
---Thank you Anne Cohen for your work on the AUD.
---Thank you XJ32 for the art work.
---Thank you Germain for your advice, encouragement, guidance and seeding.

Matrix by dusborne

03-04-2017
------------------------------------------------------------------------------

Set 1

101 - gd81-05-15s1t01 - Tuning
102 - gd81-05-15s1t02 - Mississippi Half-Step Uptown Toodeloo ->
103 - gd81-05-15s1t03 - Franklin's Tower ->
104 - gd81-05-15s1t04 - New Minglewood Blues
105 - gd81-05-15s1t05 - Dire Wolf
106 - gd81-05-15s1t06 - Cassidy
107 - gd81-05-15s1t07 - Candyman ->
108 - gd81-05-15s1t08 - Little Red Rooster
109 - gd81-05-15s1t09 - Jack-A-Roe
110 - gd81-05-15s1t10 - El Paso
111 - gd81-05-15s1t11 - Ramble on Rose ->
112 - gd81-05-15s1t12 - Looks Like Rain -> **(mtx->aud)
111 - gd81-05-15s1t13 - Don't Ease Me In **(aud only)

Set 2

201 - gd81-05-15s2t01 - Tuning
202 - gd81-05-15s2t02 - Scarlet Begonias ->
203 - gd81-05-15s2t03 - Fire on the Mountain ->
204 - gd81-05-15s2t04 - Estimated Prophet ->
205 - gd81-05-15s2t05 - Eyes of the World ->
206 - gd81-05-15s2t06 - Drums ->
207 - gd81-05-15s2t07 - Space ->
208 - gd81-05-15s2t08 - Not Fade Away ->
209 - gd81-05-15s2t09 - Black Peter ->
210 - gd81-05-15s2t10 - Sugar Magnolia

Encore
211 - gd81-05-15s2t11 - U.S. Blues
------------------------------------------------------------------------------------------
Tagging notes:
Show information is embedded within the headerof each flac file.
It will display on any player capable of directly playing flac files.
If converted to wav during processing, all tags will be stripped,
however audio data will remain unaffected.
If you must transcode to a lossy format, do so directly Flac > Lossy.
Use st5 to validate audio integrity.
Md5 values will change if tagging is altered.

Dave Usborne 03-04-2017
------------------------------------------------------------------------------------------
    length     expanded size    cdr  WAVE problems  fmt   ratio  filename
     0:41.42        7331228 B   ---   --   ---xx   flac  0.5771  gd81-05-15s1t01.flac
     8:52.22       93896588 B   ---   --   ---xx   flac  0.6723  gd81-05-15s1t02.flac
    10:04.56      106677356 B   ---   --   ---xx   flac  0.6875  gd81-05-15s1t03.flac
     7:34.45       80191484 B   ---   --   ---xx   flac  0.6576  gd81-05-15s1t04.flac
     3:32.03       37403900 B   ---   --   ---xx   flac  0.6580  gd81-05-15s1t05.flac
     7:30.32       79455308 B   ---   --   ---xx   flac  0.6278  gd81-05-15s1t06.flac
     7:04.72       74962988 B   ---   --   ---xx   flac  0.6325  gd81-05-15s1t07.flac
    10:01.39      106108172 B   ---   --   ---xx   flac  0.6469  gd81-05-15s1t08.flac
     5:25.15       57365324 B   ---   --   ---xx   flac  0.6604  gd81-05-15s1t09.flac
     5:24.00       57153644 B   ---   --   ---xx   flac  0.6438  gd81-05-15s1t10.flac
     8:11.05       86624204 B   ---   --   ---xx   flac  0.6464  gd81-05-15s1t11.flac
     8:44.09       92454812 B   ---   --   ---xx   flac  0.6379  gd81-05-15s1t12.flac
     3:21.72       35625788 B   ---   --   ---xx   flac  0.6297  gd81-05-15s1t13.flac
     0:38.07        6719708 B   ---   --   ---xx   flac  0.5258  gd81-05-15s2t01.flac
    11:40.15      123515324 B   ---   --   ---xx   flac  0.6646  gd81-05-15s2t02.flac
     8:33.13       90523820 B   ---   --   ---xx   flac  0.6588  gd81-05-15s2t03.flac
    11:41.52      123778748 B   ---   --   ---xx   flac  0.6504  gd81-05-15s2t04.flac
     9:56.52      105256748 B   ---   --   ---xx   flac  0.6613  gd81-05-15s2t05.flac
     9:28.50      100312844 B   ---   --   ---xx   flac  0.5986  gd81-05-15s2t06.flac
     5:24.40       57247724 B   ---   --   ---xx   flac  0.5799  gd81-05-15s2t07.flac
     8:32.31       90389756 B   ---   --   ---xx   flac  0.6469  gd81-05-15s2t08.flac
     9:03.66       95940476 B   ---   --   ---xx   flac  0.6237  gd81-05-15s2t09.flac
     9:21.70       99125084 B   ---   --   ---xx   flac  0.6794  gd81-05-15s2t10.flac
     5:15.51       55685996 B   ---   --   ---xx   flac  0.6663  gd81-05-15s2t11.flac
   176:05.34     1863747024 B                            0.6479  (24 files)


Show Checksums
flac-md5
41f73a02386e54560f1f8aeef6c02e41 *gd81-05-15s1t01.flac
02383de36f54e79cca50b753d7ff8f89 *gd81-05-15s1t02.flac
f361b1844de7fc7c1cbd649aaacf0fc6 *gd81-05-15s1t03.flac
9bd16cf54baa9ccacff8f0ff6a085f0d *gd81-05-15s1t04.flac
0904b89c47b525a695157ea7a32ec820 *gd81-05-15s1t05.flac
6813454081827da81ca976f372adc080 *gd81-05-15s1t06.flac
cc01fa58efed7b929878f94a34ecbca0 *gd81-05-15s1t07.flac
0e4467d7f9bfebde161984da91637207 *gd81-05-15s1t08.flac
db44484cad9d91070025238232fc3164 *gd81-05-15s1t09.flac
44d19a57d3fba27838599f1122b9ed04 *gd81-05-15s1t10.flac
20a83778051b2919d45d5ce483c3db92 *gd81-05-15s1t11.flac
50a01919ea932534622f5334ad5c4058 *gd81-05-15s1t12.flac
295919a706d18ed26d314b60a27dfbb3 *gd81-05-15s1t13.flac
95963a109a0719c7ee1fc25f36b5deba *gd81-05-15s2t01.flac
15b3fb07ea98b5813bdb6c5e26dec41a *gd81-05-15s2t02.flac
083048f78bbba493304e692cab9d3c7e *gd81-05-15s2t03.flac
da22133d90c2c3ff7e5e241af463cfb9 *gd81-05-15s2t04.flac
938d8e7b424c850f10a178baf3ceee7b *gd81-05-15s2t05.flac
15624160fffc09294d33b3fff5b9d0e7 *gd81-05-15s2t06.flac
cb9e7261e4bb758a670c82b1127920c4 *gd81-05-15s2t07.flac
0433ef2085b062382a9505e47410d4ca *gd81-05-15s2t08.flac
e899873eda54edc39b9748777ae43dbf *gd81-05-15s2t09.flac
d0e34b90f3e558ac83a950129ec0655f *gd81-05-15s2t10.flac
b1de4dbf3d6cfaa8cc3cf5f16b1ef649 *gd81-05-15s2t11.flac
ffp
gd81-05-15s1t01.flac:7708bee51bee0a45e88cdd974bb0a7a7
gd81-05-15s1t02.flac:e77b70f46fbef500afc41f088b87fa11
gd81-05-15s1t03.flac:36f41a8c839b3f9b35ae63f71779f01f
gd81-05-15s1t04.flac:d8f4d9b4cd2cd9c47405f369dc7a848a
gd81-05-15s1t05.flac:e67999721a5ef9f39b7e6799c75c081c
gd81-05-15s1t06.flac:733ee86932686608296bc05d7aceeb5a
gd81-05-15s1t07.flac:cd92892a892eb08bc076f13797e088dd
gd81-05-15s1t08.flac:65aa0469de950f469692341387e0868c
gd81-05-15s1t09.flac:257862886592cfadfa69b39f071f733a
gd81-05-15s1t10.flac:f6d93490a609f73855a169c881495f2a
gd81-05-15s1t11.flac:211e0db9d4a37a1d048d2efabb37e7af
gd81-05-15s1t12.flac:e244498afebeab340ef4953961532736
gd81-05-15s1t13.flac:ea67dd0e4df5affd4564ee152c88758d
gd81-05-15s2t01.flac:5c40aacf978ae5043addd4a44214aded
gd81-05-15s2t02.flac:bc7ae1dc173cb0fef5eb5c404ba6f833
gd81-05-15s2t03.flac:9f93bae316a9e58d23dddba429180aff
gd81-05-15s2t04.flac:71d587b0287a6ef13501beab0b37ee16
gd81-05-15s2t05.flac:71b83b02c1ef90efa0e3adcbe315efee
gd81-05-15s2t06.flac:0be450f5e4fb8dfd5aa30a83c1a88f49
gd81-05-15s2t07.flac:97292d8b4fc0f0b32f5c5f4091da72f5
gd81-05-15s2t08.flac:b5701e3c5b54ac65ef79ea5443f65c4f
gd81-05-15s2t09.flac:c3777763c47acbf4509e0b1594af9b06
gd81-05-15s2t10.flac:76f37aa0a62d9a33cca5f4f9efc0b4ad
gd81-05-15s2t11.flac:4c3c25cac1c12f7b76502026c6f7bf94

Comments
Add Comment
Other Sources (comments)
(FOB) Senn 421> Cm> Dat>... (0) MAC>DAT>CD. Recording by... (0) flac16; Recording... (1) flac16; Recording... (0) flac16/48 Jim... (0) flac24/96 Jim... (0)
Date User Comment