Browse Collections Artists Sources   Search Dates

Add Show    List Management    Help


Garcia 05/31/81
The Stone, San Francisco, CA
Comments Add Comment    Source Collectors    Add to Collection    Add to Want List    History
Source # 137952 Other Sources
Entered by Joe Jupille
Checksums jgb1981-05-31.ffp , jgb1981-05-31.md5
Disc Counts 0 / 0
Media Size Compressed: 350.86 MB (367906816 bytes)
Uncompressed: 964.54 MB (1011397984 bytes)
Date Circulated
Date Added
03/09/2017
03/09/2017
Source Summary JGB, flac1644; Unknown AUD (1st Gen) kindly provided from the collection of DL. Transfer: Maxell XLII > Nakamichi CR-5A > Edirol FA-66 > Wavelab 2448 > R8Brain > CD-Wave > TLH > FLAC 1644 tagged. Transfer by Andrew F. 03/2017 
Source Information - Download Text | Download Zip
JERRY GARCIA BAND
The Stone
San Francisco CA
05-31-1981

s1t01 /Sugaree
s1t02 They Love Each Other
s1t03 That's What Love Will Make You Do
s1t04 Simple Twist of Fate
s1t05 Tangled Up in Blue

s2t01 Knockin' On Heaven's Door
s2t02 Let it Rock
s2t03 Dear Prudence

AUD (1st Gen) kindly provided from the collection of DL.

Transfer: Maxell XLII > Nakamichi CR-5A > Edirol FA-66 > Wavelab 2448 >
R8Brain > CD-Wave > TLH > FLAC 1644 tagged. Transfer by Andrew F. 03/2017

Note: Lo-Fi mono recording of a really hot show. Taper and equipment are
unknown, a note on the label says: "First show I taped, well it sure was
fun." A big chunk is missing from start of Sugaree, maybe three minutes?
Several other songs clip in/out abruptly as the deck was turned off & on.
It's likely that one or two songs are missing from end of the Second Set.

    length     expanded size    cdr  WAVE problems  fmt   ratio  filename
    11:25.32      120909308 B   ---   --   ---xx   flac  0.3634  jgb1981-05-31s1t01.flac
     8:18.06       87861356 B   ---   --   ---xx   flac  0.3578  jgb1981-05-31s1t02.flac
    10:41.08      113091260 B   ---   --   ---xx   flac  0.3633  jgb1981-05-31s1t03.flac
    16:26.70      174095084 B   ---   --   ---xx   flac  0.3534  jgb1981-05-31s1t04.flac
    10:37.37      112453868 B   ---   --   ---xx   flac  0.3743  jgb1981-05-31s1t05.flac
    16:43.38      177018620 B   ---   --   ---xx   flac  0.3665  jgb1981-05-31s2t01.flac
     9:33.30      101147804 B   ---   --   ---xx   flac  0.3723  jgb1981-05-31s2t02.flac
    11:47.45      124820684 B   ---   --   ---xx   flac  0.3625  jgb1981-05-31s2t03.flac
    95:33.41     1011397984 B                            0.3637  (8 files)

No errors occured.


Show Checksums
jgb1981-05-31.ffp
jgb1981-05-31s1t01.flac:b0d5a67b14f5167674d5946776161725
jgb1981-05-31s1t02.flac:5bbb06de11e12efaad0ae34940a79f9a
jgb1981-05-31s1t03.flac:ea90b4aa1e19de2ce2217fd773ab6533
jgb1981-05-31s1t04.flac:ae406b887121c5bc28e7abb2bad91d2d
jgb1981-05-31s1t05.flac:a48f53a879197e5581458db110186540
jgb1981-05-31s2t01.flac:d11faa56037edcd15f7c9896b55f3f1d
jgb1981-05-31s2t02.flac:d4ef51bb21465b8c0fb74f7329ca0ed8
jgb1981-05-31s2t03.flac:8d0b117594d3bb53e8abc0caec0ed087
jgb1981-05-31.md5
c7cb0747e7349e85d9048b8d64f84a78 *jgb1981-05-31s1t01.flac
b6c3381480400b7a92afdd358a6216bb *jgb1981-05-31s1t02.flac
d745abc11370c6f06d49cd4a1ef8b528 *jgb1981-05-31s1t03.flac
ecd6154f762d39137e0842eba0858a80 *jgb1981-05-31s1t04.flac
aef2ea9fb5a75a28167b9a6907cd1be4 *jgb1981-05-31s1t05.flac
cdba64c93f65270c0e569f174daa312a *jgb1981-05-31s2t01.flac
9029193e387daeae89ce6f0e1532fe0e *jgb1981-05-31s2t02.flac
4d95ccd21e848955bf9394ebbfad3b74 *jgb1981-05-31s2t03.flac

Comments
Add Comment
Date User Comment