Browse Collections Artists Sources   Search Dates

Add Show    List Management    Help


Grateful Dead 10/02/80
Warfield Theater, San Francisco, CA
Comments Add Comment    Source Collectors    Add to Collection    Add to Want List    History
Source # 138019 Other Sources
Entered by Matt Vernon
Checksums flac-md5 , ffp
Disc Counts 1 / 1
Media Size Compressed: 376.23 MB (394507091 bytes)
Uncompressed: 711.77 MB (746344180 bytes)
Date Circulated
Date Added
03/17/2017
03/17/2017
Source Summary flac16; SBD > ? > cassette > CD > WAV > FLAC 
  Archive
Source Information - Download Text | Download Zip
Grateful Dead
Warfield Theatre
San Francisco, CA

10/2/80 - Thursday

SET TWO - SBD

1. Bertha >
2. Greatest Story Ever Told
3. Peggy-O
4. Mama Tried >
5. Mexicali Blues
6. It Must Have Been The Roses
7. It's All Over Now
8. Loser
9. Looks Like Rain
10. China Cat Sunflower >
11. I Know You Rider

SBD > ? > cassette > CD > WAV > FLAC

The soundboard of this set is NEW to digital circulation.

Soundboard recordings of the first and third sets of this show are available, but the second set has only circulated on audience recordings online; the soundboard has been missing until now.

The lineage is unknown; this copy came from an old multi-gen cassette, which is now lost.

The db.etree ID is pending.

Thanks to Barry Smith & Andy Lemieux.


    length     expanded size    cdr  WAVE problems  fmt   ratio  filename
     6:33.55       69454604 B   ---   --   ---xx   flac  0.5453  01. Bertha.flac
     4:16.38       45247820 B   ---   --   ---xx   flac  0.5327  02. Greatest Story Ever Told.flac
     7:16.07       76926908 B   ---   --   ---xx   flac  0.4984  03. Peggy-O.flac
     2:37.34       27774812 B   ---   --   ---xx   flac  0.5452  04. Mama Tried.flac
     5:22.10       56824364 B   ---   --   ---xx   flac  0.5122  05. Mexicali Blues.flac
     7:15.10       76757564 B   ---   --   ---xx   flac  0.4864  06. It Must Have Been The Roses.flac
     8:17.56       87802556 B   ---   --   ---xx   flac  0.5507  07. It's All Over Now.flac
     7:08.55       75628604 B   ---   --   ---xx   flac  0.5184  08. Loser.flac
     8:36.39       91114172 B   ---   --   ---xx   flac  0.5119  09. Looks Like Rain.flac
     6:49.08       72166460 B   ---   --   ---xx   flac  0.5665  10. China Cat Sunflower.flac
     6:17.61       66646316 B   ---   --   ---xx   flac  0.5630  11. I Know You Rider.flac
    70:30.73      746344180 B                            0.5286  (11 files)

Show Checksums
flac-md5
11563e335b5e2f2cf9147b7f456581e4 *01. Bertha.flac
339f7a78d8105c3f289d609c3fcbd190 *02. Greatest Story Ever Told.flac
c748b61bb5f0ff83b256e534b98eada0 *03. Peggy-O.flac
e7933883daee306ce29c2ffd91051908 *04. Mama Tried.flac
7b3af86ae537e7d9f58a065543ccf150 *05. Mexicali Blues.flac
eba6c6ef40bb01f567623e478a257184 *06. It Must Have Been The Roses.flac
3d0b038cb4d809675bae4235f5c0bb26 *07. It's All Over Now.flac
e35fae0d638c7c8dd4869221805290b4 *08. Loser.flac
76da7025791cd2cf231253c90a95605a *09. Looks Like Rain.flac
3647840e3fe6784edac44eb2ac53e2b8 *10. China Cat Sunflower.flac
456f4778d400a2ec16048fc032789b7c *11. I Know You Rider.flac
ffp
01. Bertha.flac:1564cf4863d3dd285709357b17d76c70
02. Greatest Story Ever Told.flac:e012023182dfcf995a51129df2b91702
03. Peggy-O.flac:152dd9df53b0e940e100c9593d334c7f
04. Mama Tried.flac:264b589ff7b27850ec6109fa845c26c9
05. Mexicali Blues.flac:fc40a77d066f80246ca86d3343dfa6fa
06. It Must Have Been The Roses.flac:d3f3baee96fa838c0543ff7dfcbf8545
07. It's All Over Now.flac:e59bb2c5f81c9bb0818c58033431989e
08. Loser.flac:388a2a4e059cd4488ef1e962db84ebc2
09. Looks Like Rain.flac:1cc99c76c0701b6db546ba8130f45ca0
10. China Cat Sunflower.flac:56af95ebe3f129c0e42fce540608e535
11. I Know You Rider.flac:7440de0fc1dce4aac49901b12c9c3f14

Comments
Add Comment
Other Sources (comments)
set 3; SBD-> Master... (2) Acoustic set; SBD> MR>... (2) acoustic and electric sets;... (0) flac16; Recording by... (0) flac16; Acoustic... (1) flac16; Acoustic Set... (0) flac16; Recording... (0) flac24; Partial Show... (0) flac16; Partial Show... (0)
Date User Comment