Browse Collections Artists Sources   Search Dates

Add Show    List Management    Help


Grateful Dead 04/15/83
Community War Memorial Auditorium, Rochester, NY
Comments Add Comment    Source Collectors    Add to Collection    Add to Want List    History
Source # 138067 Other Sources
Entered by Matt Vernon
Checksums flac-md5 , ffp
Disc Counts 0 / 0
Media Size Compressed: 1.15 GB (1237490608 bytes)
Uncompressed: 1.71 GB (1834709232 bytes)
Date Circulated
Date Added
03/28/2017
03/28/2017
Source Summary flac16; 2 source matrix by Dusborne; Soundboard (shnid:32780), Recording Info: set 1: SBD -> Cassette Master -> Reel -> Dat (48k)Set 2: SBD -> PCM -> Dat (44.1k)Transfer Info:Dat (Sony R500) -> SEK'D Prodif Plus -> Samplitude Professional v8.01 -> FLAC and Audience (shnid:94282), Recording Info: (FOB) Audio Technica Mics -> Cassette Master (Sony D6/Maxell UDXL-II/Dolby B); Transfer Info: Cassette Master (Namamichi DR-1/Dolby B) -> Sound Devices 744T (24bit/96k) ->Samplitude Professional v10.1 -> FLAC/16, Recorded and Transfered By Charlie Miller 
  Archive
Source Information - Download Text | Download Zip
Grateful Dead
April 15, 1983
War Memorial Auditorium
Rochester, NY

2 Source Matrix

Soundboard (shnid:32780)
--------------------------------------------------------------------------------
gd83-04-15.32780.sbd.miller.sbeok.t-flac16

Recording Info:
set 1: SBD -> Cassette Master -> Reel -> Dat (48k)
Set 2: SBD -> PCM -> Dat (44.1k)

Transfer Info:
Dat (Sony R500) -> SEK'D Prodif Plus -> Samplitude Professional v8.01 -> FLAC
(3 Discs Audio / 2 Discs FLAC)

All Transfers and Mastering By Charlie Miller
[email protected]
March 16, 2006

Patch Info:
(FOB) Audio Technica's>Cass Master recorded by Charlie Miller supplies:
2 seconds at the start of My Brother Esau
4 seconds at the start of Baby Blue

Notes:
-- Seamless transition between Discs 2 and 3


Audience (shnid:94282)
-------------------------------------------------------------------------------
gd83-04-15.94282.fob-at.miller.sbeok.t-flac16

Recording Info:
(FOB) Audio Technica Mics -> Cassette Master (Sony D6/Maxell UDXL-II/Dolby B)

Transfer Info:
Cassette Master (Namamichi DR-1/Dolby B) -> Sound Devices 744T (24bit/96k) ->
Samplitude Professional v10.1 -> FLAC/16
(3 Discs Audio / 2 Discs FLAC)

Recorded and Transfered By Charlie Miller
[email protected]
August 30, 2008

Patch Info:
(FOB) Sennheiser 421 -> Cassette Master -> Dat -> CD (shnid=9974) supplies:
Little Star (0:31 - 0:40)
Drums (0:15 - end of track)
Space (0:00 - 0:30)
Around And Around (0:50 - 1:05)

Notes:
-- Set 2 is seamless
-- Recorded 15 feet in front of sbd, about 10 feet to the right
-- This was the first Grateful Dead show I taped
-- Unpatched cut during first few seconds of Around And Around
-- Previous transfers were not dolby decoded, this one is
----------------------------------------------------------------------------------

---Thank you Charlie Miller for everything!
---Thank you Germain for your advice, encouragement, guidance and seeding.

Matrix by dusborne

03-27-2017
------------------------------------------------------------------------------

Set 1

101 - gd83-04-15s1t01 - Tuning
102 - gd83-04-15s1t02 - Shakedown Street
103 - gd83-04-15s1t03 - My Brother Esau
104 - gd83-04-15s1t04 - Brown Eyed Women
105 - gd83-04-15s1t05 - Little Red Rooster
106 - gd83-04-15s1t06 - Dire Wolf
107 - gd83-04-15s1t07 - Lazy Lightning ->
108 - gd83-04-15s1t08 - Supplication ->
109 - gd83-04-15s1t09 - Deal

Set 2

201 - gd83-04-15s2t01 - Tuning
202 - gd83-04-15s2t02 - Feel Like a Stranger
203 - gd83-04-15s2t03 - Samson & Delilah
204 - gd83-04-15s2t04 - Ship of Fools
205 - gd83-04-15s2t05 - Maybe You Know
206 - gd83-04-15s2t06 - He's Gone ->
207 - gd83-04-15s2t07 - Little (Bob) Star ->
208 - gd83-04-15s2t08 - Drums ->
209 - gd83-04-15s2t09 - Space ->
210 - gd83-04-15s2t10 - Throwing Stones ->
211 - gd83-04-15s2t11 - Not Fade Away ->
212 - gd83-04-15s2t12 - Goin' Down the Road Feeling Bad ->
213 - gd83-04-15s2t13 - Around & Around ->
214 - gd83-04-15s2t14 - Johnny B. Goode

Encore
215 - gd83-04-15s2t15 - It's All Over Now, Baby Blue
--------------------------------------------------------------------------

Show information is embedded within the header of each flac file.
It will display on any player capable of directly playing flac
files. If converted to wav during processing, all tags will be
stripped, however audio data will remain unaffected. If you must
transcode to a lossy format, do so directly Flac > Lossy.
Use ffp to validate audio integrity.
Md5 values will change if tagging is altered.

Dave Usborne 03-27-2017
--------------------------------------------------------------------------------
    length     expanded size    cdr  WAVE problems  fmt   ratio  filename
     3:45.70       39854684 B   ---   --   ---xx   flac  0.5778  gd83-04-15s1t01.flac
    14:10.66      150095276 B   ---   --   ---xx   flac  0.6802  gd83-04-15s1t02.flac
     7:08.37       75586268 B   ---   --   ---xx   flac  0.6513  gd83-04-15s1t03.flac
     7:36.25       80497244 B   ---   --   ---xx   flac  0.6291  gd83-04-15s1t04.flac
     9:36.17      101646428 B   ---   --   ---xx   flac  0.6551  gd83-04-15s1t05.flac
     4:09.57       44057708 B   ---   --   ---xx   flac  0.6335  gd83-04-15s1t06.flac
     3:48.03       40226300 B   ---   --   ---xx   flac  0.6730  gd83-04-15s1t07.flac
     6:40.58       70696460 B   ---   --   ---xx   flac  0.6633  gd83-04-15s1t08.flac
     7:47.11       82404716 B   ---   --   ---xx   flac  0.6581  gd83-04-15s1t09.flac
     1:00.48       10696940 B   ---   --   ---xx   flac  0.6552  gd83-04-15s2t01.flac
     9:32.58      101037260 B   ---   --   ---xx   flac  0.7321  gd83-04-15s2t02.flac
     9:32.66      101056076 B   ---   --   ---xx   flac  0.7066  gd83-04-15s2t03.flac
     8:48.71       93306236 B   ---   --   ---xx   flac  0.6618  gd83-04-15s2t04.flac
     4:54.02       51866348 B   ---   --   ---xx   flac  0.7659  gd83-04-15s2t05.flac
    13:07.12      138855068 B   ---   --   ---xx   flac  0.6740  gd83-04-15s2t06.flac
     6:00.22       63555788 B   ---   --   ---xx   flac  0.6997  gd83-04-15s2t07.flac
     6:13.35       65879564 B   ---   --   ---xx   flac  0.5752  gd83-04-15s2t08.flac
    11:12.55      118670204 B   ---   --   ---xx   flac  0.5731  gd83-04-15s2t09.flac
     9:50.65      104228924 B   ---   --   ---xx   flac  0.7071  gd83-04-15s2t10.flac
     6:08.16       64952876 B   ---   --   ---xx   flac  0.7203  gd83-04-15s2t11.flac
     6:46.64       71768972 B   ---   --   ---xx   flac  0.7506  gd83-04-15s2t12.flac
     3:42.32       39236108 B   ---   --   ---xx   flac  0.7239  gd83-04-15s2t13.flac
     4:32.42       48079628 B   ---   --   ---xx   flac  0.7446  gd83-04-15s2t14.flac
     7:13.31       76454156 B   ---   --   ---xx   flac  0.6987  gd83-04-15s2t15.flac
   173:20.63     1834709232 B                            0.6745  (24 files)


Show Checksums
flac-md5
16d2e2ce27b83eb6cb9974c8b8e85b8c *gd83-04-15s1t01.flac
6462238467fe286c9c50b26c66123bfc *gd83-04-15s1t02.flac
d08ba29384c73502c025490a26241c1f *gd83-04-15s1t03.flac
b54c957cc355a461c5b71d40287bd429 *gd83-04-15s1t04.flac
de7e9782605edfb413481531a27ebabe *gd83-04-15s1t05.flac
7ffc04f6975a889707f723d2b776116b *gd83-04-15s1t06.flac
3fa9750ac38a5ba1d88092774a5c7836 *gd83-04-15s1t07.flac
062086c903960434f0a37fe2facc8083 *gd83-04-15s1t08.flac
abec316a1be9f8418d59c6c0607cebe3 *gd83-04-15s1t09.flac
bf8cd1b8c9ba5058d3e4ef15f44be3a0 *gd83-04-15s2t01.flac
0cdca43986ba09094f3763ea8e926987 *gd83-04-15s2t02.flac
1a91f39cc013f09e5f7920ea23a73e80 *gd83-04-15s2t03.flac
6c70669a7b0eb1292a3754285948e1f5 *gd83-04-15s2t04.flac
125284a1034feffee739ce7fc63a4f56 *gd83-04-15s2t05.flac
48bdadf3e4974a12e2771be5604cdd3c *gd83-04-15s2t06.flac
e724477fc4a748f9feb053303415d71f *gd83-04-15s2t07.flac
8630f6fc93b554d9600911ee973ae7ae *gd83-04-15s2t08.flac
480acfbd330e21cbdd79e3ea9ebc0cfb *gd83-04-15s2t09.flac
88ff293fe54cad73cc04eec3b0fd6142 *gd83-04-15s2t10.flac
eb3a1f879c263d96dc5ffb4d8f48f6dc *gd83-04-15s2t11.flac
c92fd0e8c2272c1f8c5dfc1badeb4f0f *gd83-04-15s2t12.flac
1e9571187451ce567a53e5e91c96b167 *gd83-04-15s2t13.flac
fc27ca07a1b06d9b258d44303cb27038 *gd83-04-15s2t14.flac
c3601d0a04d7f17af79d6c6863ed5039 *gd83-04-15s2t15.flac
ffp
gd83-04-15s1t01.flac:e5c05c9c43b803e4b210335310bf2d93
gd83-04-15s1t02.flac:4e6bb1e30ee5bb19b59849070bebcb46
gd83-04-15s1t03.flac:082824b148672d2f43dd528e81bde8e5
gd83-04-15s1t04.flac:520cc9ea48718da16944b126536b531d
gd83-04-15s1t05.flac:d6cbfd3a8cfe50d1769ce6f317af3e6f
gd83-04-15s1t06.flac:cf97deb9427db68c1b469fe6ce6e05ed
gd83-04-15s1t07.flac:da10158061296537a5e3c1971262bb41
gd83-04-15s1t08.flac:b70b1084fb5847a8463e9eb1af479644
gd83-04-15s1t09.flac:f01ddfb083b5683b7ccedcf044260cc8
gd83-04-15s2t01.flac:d52c0da91998a9e6cf3ea41a1b869a88
gd83-04-15s2t02.flac:ae1eff408e2a438c0513530083dfb6de
gd83-04-15s2t03.flac:84d9ff6f0cbf6e6006e258689b0048a9
gd83-04-15s2t04.flac:a8e9755bda45161ae06a48aca0f2f8e4
gd83-04-15s2t05.flac:f1e9135273f6440230b701cc9c1c786a
gd83-04-15s2t06.flac:d8eef0ca61d7e74851d263a0b7211bd4
gd83-04-15s2t07.flac:8e01287a45025301a39fcaa6865a1193
gd83-04-15s2t08.flac:fad0ac2d470a0c9568aa96217935ae7d
gd83-04-15s2t09.flac:9538525e62b6ff913c1e6c15704dcc42
gd83-04-15s2t10.flac:4fccb1daf000a79eae9a5687c117e46e
gd83-04-15s2t11.flac:677a2b2d41af8a755fb2d29c34b1ac48
gd83-04-15s2t12.flac:c5143ce84e8c6babda4c7d001906eb1b
gd83-04-15s2t13.flac:d31b83acde4fa56d19c6a50cb89a997c
gd83-04-15s2t14.flac:cf93d5a077313a817ca346450dc03873
gd83-04-15s2t15.flac:a58642780327ca8a6b9990248b153334

Comments
Add Comment
Other Sources (comments)
Senn. 421?s > MC>DAT>CD;... (0) 2nd set; SBD>PCM>DAT>Sonic... (1) (FOB) Audio Technica Mics... (0) Recording Info: Set 1: SBD... (0) flac16; Recording... (0) flac24; Recording... (0) flac16;... (0) flac16;Recording... (0) flac24; Recording... (0) flac16; AUD:... (0) flac16; Set 2... (0) flac16; aud cassette... (0) flac24; aud cassette... (0) flac24; source:... (0) flac16/44.1 ... (0) flac24/48 ... (0) flac16/44.1 ... (0) flac24/48 ... (0) flac24; Recording... (0)
Date User Comment