Browse Collections Artists Sources   Search Dates

Add Show    List Management    Help


Phil Lesh & Friends 03/15/17
Capitol Theatre, Port Chester, NY
Comments Add Comment    Source Collectors    Add to Collection    Add to Want List    History
Source # 138096 Other Sources
Entered by Matt Vernon
Checksums ffp
Disc Counts 0 / 0
Media Size
Date Circulated
Date Added

04/08/2017
Source Summary flac16 Source: Schoeps CCM4V's>Lunatec V2>Benchmark AD2K> Sound Devices 722 (24/44) FOB/DRFC/KFC/ZFC/AARP 35' From Stage, 8 1/2' High DSP: Sound Devices 722>Sound Forge 10.0>CD Wave>flac(16) Recorded By: Z-Man 
  Archive
Source Information - Download Text | Download Zip
Phil And Friends
Capitol Theatre
Port Chester, New York
3/15/2017

Source: Schoeps CCM4V's>Lunatec V2>Benchmark AD2K>
Sound Devices 722 (24/44)
FOB/DRFC/KFC/ZFC/AARP 35' From Stage, 8 1/2' High
DSP: Sound Devices 722>Sound Forge 10.0>CD Wave>flac(16)
ID3 Tagged In Foobar 2000
Recorded By: Z-Man
Seeded By: Z-Man

Disc I 1st Set

01 After Midnight
02 Mr. Charlie
03 Bertha
04 Broken Arrow
05 Sound Of Silence Jam >
06 Jam >
07 Eleanor Rigby Jam
08 What's Become If The Broken Hearted
09 Box Of Rain

Disc II 2nd Set

01 Shakedown Street
02 New Speedway Boogie >
03 The Other One >
04 Stairway To Heaven Jam >

Disc I 2nd Set Con't

01  Sugaree
02 Terrapin Station >
03 I Know You Rider
04 Not Fade Away
Encore:
05 Phil Thanks
06 Happy Birthday Phil
07 Phil Donor Rap
08 Turn On Your Lovelight >
09 Happy Birthday Phil >
10 Turn On Your lovelight
11 Band Introductions

Phil Lesh - Bass And Vocals
John Kadlecik - Guitar And Vocals
Joan Osborne - Vocals And Percussion
Jason Crosby - Keyboards
Stanley Jordan - Guitar
Mark Levy - Drums

phil2017-03-15d01t01.flac:5a882fd75bf1cffaec7e0ef72dbcd733
phil2017-03-15d01t02.flac:8bbee21dbafd2ff5291c3d99886b6cb4
phil2017-03-15d01t03.flac:d2f61feb81c9b7e8e8b610682445ad1f
phil2017-03-15d01t04.flac:4ef355a03b6d8c06baec34c0799ce2cd
phil2017-03-15d01t05.flac:a59d5a83340840e923bfc2b55e60bd63
phil2017-03-15d01t06.flac:fcde0c3bc9df978db3822e61a3f47c98
phil2017-03-15d01t07.flac:b58076b440de6ca6802c7a16171fcc16
phil2017-03-15d01t08.flac:b7dafb7a2d8b49fdb6fd4831f154da03
phil2017-03-15d01t09.flac:f961dd4aeeb5c64e416b8601e7665857
phil2017-03-15d02t01.flac:4f3dd15f742c147d7a8c0fbd3537e7f6
phil2017-03-15d02t02.flac:c4733ef11175f2d3f009ed2f7cbca45e
phil2017-03-15d02t03.flac:b10541ad5a9b8a6504a1630ddab301bf
phil2017-03-15d02t04.flac:5a4ee441035aea7ce16815d82a6634f2
phil2017-03-15d03t01.flac:19b7de41ba0d4038c601bd1dd5cb4b11
phil2017-03-15d03t02.flac:42e499f4c4cd8f4cff6e8e1705273882
phil2017-03-15d03t03.flac:128228ef44a0cbd66ac5346344c37291
phil2017-03-15d03t04.flac:ff6e66b63ddff4b8ce60948b103a2a85
phil2017-03-15d03t05.flac:525231745631c53e32be771ccefae16d
phil2017-03-15d03t06.flac:284cf40bb196a45b5bcd8bca09891e5a
phil2017-03-15d03t07.flac:5a3e7268b09055d04e0e1631ab24acff
phil2017-03-15d03t08.flac:5e1a7aa14439dd7ee54ac060898490ce
phil2017-03-15d03t09.flac:d238c24ebecadd23dbd5a1fe5018ebd3
phil2017-03-15d03t10.flac:10ad85774c021777616f2324804d3b5a
phil2017-03-15d03t11.flac:f74759f66e05968b94ffe353be16a3ff

length     expanded size    cdr  WAVE problems  fmt   ratio  filename
    16:29.45      174565484 B   ---   --   ---xx   flac  0.5069  phil2017-03-15d01t01.flac
     7:09.31       75748556 B   ---   --   ---xx   flac  0.5135  phil2017-03-15d01t02.flac
    11:17.29      119491052 B   ---   --   ---xx   flac  0.4903  phil2017-03-15d01t03.flac
     8:50.01       93494396 B   ---   --   ---xx   flac  0.4660  phil2017-03-15d01t04.flac
     5:56.61       62941916 B   ---   --   ---xx   flac  0.4658  phil2017-03-15d01t05.flac
     3:23.16       35846876 B   ---   --   ---xx   flac  0.4221  phil2017-03-15d01t06.flac
    10:27.66      110758076 B   ---   --   ---xx   flac  0.4685  phil2017-03-15d01t07.flac
     4:58.49       52682492 B   ---   --   ---xx   flac  0.4991  phil2017-03-15d01t08.flac
     9:09.07       96860108 B   ---   --   ---xx   flac  0.5045  phil2017-03-15d01t09.flac
    15:51.06      167770556 B   ---   --   ---xx   flac  0.5329  phil2017-03-15d02t01.flac
    14:56.21      158103836 B   ---   --   ---xx   flac  0.4965  phil2017-03-15d02t02.flac
    11:03.31      117026156 B   ---   --   ---xx   flac  0.4496  phil2017-03-15d02t03.flac
     9:54.35      104863964 B   ---   --   ---xx   flac  0.4926  phil2017-03-15d02t04.flac
    12:26.46      131702636 B   ---   --   ---xx   flac  0.5036  phil2017-03-15d03t01.flac
    15:30.47      164162588 B   ---   --   ---xx   flac  0.5043  phil2017-03-15d03t02.flac
     7:59.14       84528572 B   ---   --   ---xx   flac  0.5353  phil2017-03-15d03t03.flac
     8:56.05       94562204 B   ---   --   ---xx   flac  0.5387  phil2017-03-15d03t04.flac
     1:30.11       15901916 B   ---   --   ---xx   flac  0.4191  phil2017-03-15d03t05.flac
     0:36.41        6446876 B   ---   --   ---xx   flac  0.4564  phil2017-03-15d03t06.flac
     2:28.22       26158988 B   ---   --   ---xx   flac  0.3804  phil2017-03-15d03t07.flac
     7:45.34       82106012 B   ---   --   ---xx   flac  0.5354  phil2017-03-15d03t08.flac
     0:35.54        6301052 B   ---   --   ---xx   flac  0.5116  phil2017-03-15d03t09.flac
     2:42.54       28703852 B   ---   --   ---xx   flac  0.5578  phil2017-03-15d03t10.flac
     2:07.34       22482812 B   ---   --   ---xx   flac  0.4820  phil2017-03-15d03t11.flac
   192:06.10     2033210976 B                            0.4978  (24 files)




















































-



















































































































































































































































































































































































































Show Checksums
ffp
phil2017-03-15d01t01.flac:5a882fd75bf1cffaec7e0ef72dbcd733
phil2017-03-15d01t02.flac:8bbee21dbafd2ff5291c3d99886b6cb4
phil2017-03-15d01t03.flac:d2f61feb81c9b7e8e8b610682445ad1f
phil2017-03-15d01t04.flac:4ef355a03b6d8c06baec34c0799ce2cd
phil2017-03-15d01t05.flac:a59d5a83340840e923bfc2b55e60bd63
phil2017-03-15d01t06.flac:fcde0c3bc9df978db3822e61a3f47c98
phil2017-03-15d01t07.flac:b58076b440de6ca6802c7a16171fcc16
phil2017-03-15d01t08.flac:b7dafb7a2d8b49fdb6fd4831f154da03
phil2017-03-15d01t09.flac:f961dd4aeeb5c64e416b8601e7665857
phil2017-03-15d02t01.flac:4f3dd15f742c147d7a8c0fbd3537e7f6
phil2017-03-15d02t02.flac:c4733ef11175f2d3f009ed2f7cbca45e
phil2017-03-15d02t03.flac:b10541ad5a9b8a6504a1630ddab301bf
phil2017-03-15d02t04.flac:5a4ee441035aea7ce16815d82a6634f2
phil2017-03-15d03t01.flac:19b7de41ba0d4038c601bd1dd5cb4b11
phil2017-03-15d03t02.flac:42e499f4c4cd8f4cff6e8e1705273882
phil2017-03-15d03t03.flac:128228ef44a0cbd66ac5346344c37291
phil2017-03-15d03t04.flac:ff6e66b63ddff4b8ce60948b103a2a85
phil2017-03-15d03t05.flac:525231745631c53e32be771ccefae16d
phil2017-03-15d03t06.flac:284cf40bb196a45b5bcd8bca09891e5a
phil2017-03-15d03t07.flac:5a3e7268b09055d04e0e1631ab24acff
phil2017-03-15d03t08.flac:5e1a7aa14439dd7ee54ac060898490ce
phil2017-03-15d03t09.flac:d238c24ebecadd23dbd5a1fe5018ebd3
phil2017-03-15d03t10.flac:10ad85774c021777616f2324804d3b5a
phil2017-03-15d03t11.flac:f74759f66e05968b94ffe353be16a3ff

Comments
Add Comment
Other Sources (comments)
flac16 Neumann... (0) flac24 Matrix... (0) flac24 Source... (0) flac1648 Source... (0)
Date User Comment