Browse Collections Artists Sources   Search Dates

Add Show    List Management    Help


Phil Lesh & Friends 03/15/17
Capitol Theatre, Port Chester, NY
Comments Add Comment    Source Collectors    Add to Collection    Add to Want List    History
Source # 138097 Other Sources
Entered by Matt Vernon
Checksums ffp , flac-md5
Disc Counts 0 / 0
Media Size
Date Circulated
Date Added

04/08/2017
Source Summary flac16 Neumann KMR-82i shotguns > Oade M-248 > Sound Devices 722 > WAV 2448. Mics on 7-foot stand, front of OTS, recording by Jon Pasternak. WAV 2448 > Wavelab > CD-Wave (24bit) > R8Brain > TLH > FLAC 1644 tagged. 
  Archive
Source Information - Download Text | Download Zip
PHIL LESH & FRIENDS
Capitol Theater
Port Chester NY
03-15-2017

16bit/44.1kHz file-set

s1t01 After Midnight
s1t02 Mister Charlie
s1t03 Bertha
s1t04 Broken Arrow
s1t05 Sound of Silence instrumental
s1t06 Eleanor Rigby instrumental
s1t07 What's Become of the Broken Hearted
s1t08 Box of Rain

s2t01 Shakedown Street
s2t02 New Speedway Boogie
s2t03 The Other One
s2t04 Stairway to Heaven instrumental
s2t05 Sugaree
s2t06 Terrapin
s2t07 I Know You Rider
s2t08 happy birthday Phil
s2t09 Turn On Your Lovelight
s2t10 band intros

Neumann KMR-82i shotguns > Oade M-248 > Sound Devices 722 > WAV 2448.
Mics on 7-foot stand, front of OTS, recording by Jon Pasternak.
WAV 2448 > Wavelab > CD-Wave (24bit) > R8Brain > TLH > FLAC 1644 tagged.

Phil & Friends:
Jason Crosby
Stanley Jordan
John Kadlecik
Phil Lesh
Mark Levy
Joan Osborne

a8760e33b931d656c8aef4f3cec51639 *plf2017-03-15s1t01.flac
5929fab4a5d018584c2d8e348d69d607 *plf2017-03-15s1t02.flac
f41ebe1a4f2c9cb17cc0ef62c63994ae *plf2017-03-15s1t03.flac
e8091fbba78517ab9c9068eb57d430f4 *plf2017-03-15s1t04.flac
a539dae27d4df6a2a58bd2a44363d23f *plf2017-03-15s1t05.flac
d8d7e4bca4383224ce45aa68d3fc8b8c *plf2017-03-15s1t06.flac
80d7ed4f3fe456b267b3a59756257e69 *plf2017-03-15s1t07.flac
f1e01be4770f038669e5cc317ce7a5c8 *plf2017-03-15s1t08.flac
281197df498405a4363be0a46e9f5a55 *plf2017-03-15s2t01.flac
54f1966f5f82b34170fc19e43416af1b *plf2017-03-15s2t02.flac
4aa0c07babfd92928cdf3e232292ebbc *plf2017-03-15s2t03.flac
87321aa6dad093ad9bfb43d58b800851 *plf2017-03-15s2t04.flac
46fab1ae1877e27cf0fdf58ef45e819f *plf2017-03-15s2t05.flac
ba0186ee06414aa4974b9352c99f222c *plf2017-03-15s2t06.flac
d6391b2b8e20f3d2cac503af9af7a80a *plf2017-03-15s2t07.flac
7914652a47d0938d625db67ba095dca4 *plf2017-03-15s2t08.flac
9db821dda8321a40c8c7f7383da3c870 *plf2017-03-15s2t09.flac
7f2f524a7903d946829120c34cc26790 *plf2017-03-15s2t10.flac

plf2017-03-15s1t01.flac:ec5de6c4920339bb82cbf312611860c0
plf2017-03-15s1t02.flac:97175cdb7cb1164f8341134e19e5d6e3
plf2017-03-15s1t03.flac:61053d03e77da5969ca41944cc4eb03e
plf2017-03-15s1t04.flac:27e25f5e4bb314896c55e53531ec4034
plf2017-03-15s1t05.flac:4db027cb0ba979c20d94645a7005f123
plf2017-03-15s1t06.flac:237ccc5c104e6e7edeab0c310ba1347f
plf2017-03-15s1t07.flac:2c468b03f9b097b2beb81075119be2ec
plf2017-03-15s1t08.flac:8707e706f619fcef37d85182df7a47b9
plf2017-03-15s2t01.flac:16ef7ac5048c05735779ef3afd588378
plf2017-03-15s2t02.flac:e324bbd0157af6f805bf365ab00fb2e6
plf2017-03-15s2t03.flac:4c81d829636ff7a1949d837bfd6b2a30
plf2017-03-15s2t04.flac:0fef97514d2e0829281dd996ba0d3c7e
plf2017-03-15s2t05.flac:f8b6753fb08ed61519e43fa61b176485
plf2017-03-15s2t06.flac:879bce4214ee7734850b829e9b204aaa
plf2017-03-15s2t07.flac:a966df6259f5bee4be2c0310e3fa23a6
plf2017-03-15s2t08.flac:97db91a20649bf51f4cbfc0830b1111c
plf2017-03-15s2t09.flac:636d548bba6c27330d4be252d8f1cf52
plf2017-03-15s2t10.flac:e0e961375e2d65ddc5805fc712eaefad

    length     expanded size    cdr  WAVE problems  fmt   ratio  filename
    17:33.18      185791580 B   ---   --   ---xx   flac  0.5856  plf2017-03-15s1t01.flac
     7:07.68       75482780 B   ---   --   ---xx   flac  0.6006  plf2017-03-15s1t02.flac
    11:19.00      119775644 B   ---   --   ---xx   flac  0.5732  plf2017-03-15s1t03.flac
     7:58.63       84467420 B   ---   --   ---xx   flac  0.5599  plf2017-03-15s1t04.flac
     9:02.15       95644124 B   ---   --   ---xx   flac  0.5295  plf2017-03-15s1t05.flac
    11:32.26      122129996 B   ---   --   ---xx   flac  0.5496  plf2017-03-15s1t06.flac
     5:00.64       53070572 B   ---   --   ---xx   flac  0.5878  plf2017-03-15s1t07.flac
     8:42.55       92210204 B   ---   --   ---xx   flac  0.5936  plf2017-03-15s1t08.flac
    16:28.32      174358508 B   ---   --   ---xx   flac  0.5971  plf2017-03-15s2t01.flac
    11:36.10      122797964 B   ---   --   ---xx   flac  0.5856  plf2017-03-15s2t02.flac
    13:41.43      144925580 B   ---   --   ---xx   flac  0.5091  plf2017-03-15s2t03.flac
    10:56.06      115732556 B   ---   --   ---xx   flac  0.5466  plf2017-03-15s2t04.flac
    12:23.07      131081708 B   ---   --   ---xx   flac  0.5710  plf2017-03-15s2t05.flac
    15:26.15      163381724 B   ---   --   ---xx   flac  0.5799  plf2017-03-15s2t06.flac
    20:21.66      215539676 B   ---   --   ---xx   flac  0.5872  plf2017-03-15s2t07.flac
     4:32.05       47992604 B   ---   --   ---xx   flac  0.4572  plf2017-03-15s2t08.flac
    11:04.20      117176684 B   ---   --   ---xx   flac  0.6044  plf2017-03-15s2t09.flac
     1:41.33       17894060 B   ---   --   ---xx   flac  0.5165  plf2017-03-15s2t10.flac
   196:28.21     2079453384 B                            0.5699  (18 files)

No errors occured.


Show Checksums
ffp
plf2017-03-15s1t01.flac:ec5de6c4920339bb82cbf312611860c0
plf2017-03-15s1t02.flac:97175cdb7cb1164f8341134e19e5d6e3
plf2017-03-15s1t03.flac:61053d03e77da5969ca41944cc4eb03e
plf2017-03-15s1t04.flac:27e25f5e4bb314896c55e53531ec4034
plf2017-03-15s1t05.flac:4db027cb0ba979c20d94645a7005f123
plf2017-03-15s1t06.flac:237ccc5c104e6e7edeab0c310ba1347f
plf2017-03-15s1t07.flac:2c468b03f9b097b2beb81075119be2ec
plf2017-03-15s1t08.flac:8707e706f619fcef37d85182df7a47b9
plf2017-03-15s2t01.flac:16ef7ac5048c05735779ef3afd588378
plf2017-03-15s2t02.flac:e324bbd0157af6f805bf365ab00fb2e6
plf2017-03-15s2t03.flac:4c81d829636ff7a1949d837bfd6b2a30
plf2017-03-15s2t04.flac:0fef97514d2e0829281dd996ba0d3c7e
plf2017-03-15s2t05.flac:f8b6753fb08ed61519e43fa61b176485
plf2017-03-15s2t06.flac:879bce4214ee7734850b829e9b204aaa
plf2017-03-15s2t07.flac:a966df6259f5bee4be2c0310e3fa23a6
plf2017-03-15s2t08.flac:97db91a20649bf51f4cbfc0830b1111c
plf2017-03-15s2t09.flac:636d548bba6c27330d4be252d8f1cf52
plf2017-03-15s2t10.flac:e0e961375e2d65ddc5805fc712eaefad
flac-md5
a8760e33b931d656c8aef4f3cec51639 *plf2017-03-15s1t01.flac
5929fab4a5d018584c2d8e348d69d607 *plf2017-03-15s1t02.flac
f41ebe1a4f2c9cb17cc0ef62c63994ae *plf2017-03-15s1t03.flac
e8091fbba78517ab9c9068eb57d430f4 *plf2017-03-15s1t04.flac
a539dae27d4df6a2a58bd2a44363d23f *plf2017-03-15s1t05.flac
d8d7e4bca4383224ce45aa68d3fc8b8c *plf2017-03-15s1t06.flac
80d7ed4f3fe456b267b3a59756257e69 *plf2017-03-15s1t07.flac
f1e01be4770f038669e5cc317ce7a5c8 *plf2017-03-15s1t08.flac
281197df498405a4363be0a46e9f5a55 *plf2017-03-15s2t01.flac
54f1966f5f82b34170fc19e43416af1b *plf2017-03-15s2t02.flac
4aa0c07babfd92928cdf3e232292ebbc *plf2017-03-15s2t03.flac
87321aa6dad093ad9bfb43d58b800851 *plf2017-03-15s2t04.flac
46fab1ae1877e27cf0fdf58ef45e819f *plf2017-03-15s2t05.flac
ba0186ee06414aa4974b9352c99f222c *plf2017-03-15s2t06.flac
d6391b2b8e20f3d2cac503af9af7a80a *plf2017-03-15s2t07.flac
7914652a47d0938d625db67ba095dca4 *plf2017-03-15s2t08.flac
9db821dda8321a40c8c7f7383da3c870 *plf2017-03-15s2t09.flac
7f2f524a7903d946829120c34cc26790 *plf2017-03-15s2t10.flac

Comments
Add Comment
Other Sources (comments)
flac16 Source:... (0) flac24 Matrix... (0) flac24 Source... (0) flac1648 Source... (0)
Date User Comment