Browse Collections Artists Sources   Search Dates

Add Show    List Management    Help


Phil Lesh & Friends 03/16/17
Capitol Theatre, Port Chester, NY
Comments Add Comment    Source Collectors    Add to Collection    Add to Want List    History
Source # 138100 Other Sources
Entered by Matt Vernon
Checksums ffp
Disc Counts 0 / 0
Media Size
Date Circulated
Date Added

04/08/2017
Source Summary flac16 Source: Schoeps CCM4V's>Lunatec V2>Benchmark AD2K> Sound Devices 722 (24/44) FOB/DRFC/KFC/ZFC/AARP 35' From Stage, 8 1/2' High DSP: Sound Devices 722>Sound Forge 10.0>CD Wave>flac(16) Recorded By: Z-Man Seeded By: Z-Man 
  Archive
Source Information - Download Text | Download Zip
Phil And Friends
Capitol Theatre
Port Chester, New York
3/16/2017

Source: Schoeps CCM4V's>Lunatec V2>Benchmark AD2K>
Sound Devices 722 (24/44)
FOB/DRFC/KFC/ZFC/AARP 35' From Stage, 8 1/2' High
DSP: Sound Devices 722>Sound Forge 10.0>CD Wave>flac(16)
ID3 Tagged In Foobar 2000
Recorded By: Z-Man
Seeded By: Z-Man
Thanks To Anne For The Clamp Space!
Thanks To Stephen For The Ducat!

Disc I 1st Set

01 Golden Road To Unlimited Devotion
02 Samson And Delilah
03 Althea
04 Mississippi Half-Step
05 Good Lovin'
06 Dire Wolf
07 Cosmic Charlie

Disc II 2nd Set

01 Scarlet Begonias >
02 Jam >
03 Uncle John's Band
04 Somewhere Over The Rainbow
05 Fire On The Mountain
06 Death Don't Have No Mercy

Disc I 2nd Set Con't

01 Gimme Shelter
02 Help On The Way >
03 Slipknot! >
04 Franklin's Tower
Encore:
05 Phil Donor Rap
06 Goin' Down The Road Feelin' Bad
07 Band Introductions

Phil Lesh - Bass And Vocals
John Kadlecik - Guitar And Vocals
Joan Osborne - Vocals And Percussion
Jason Crosby - Keyboards
Stanley Jordan - Guitar
Mark Levy - Drums

phil2016-03-16d01t01.flac:f823bcb412e4965ad190a8dc9aa1a940
phil2016-03-16d01t02.flac:95d8a3d079fdfbda86fc3359c324986e
phil2016-03-16d01t03.flac:1ad25fefb74361d5af7066e5e6524db9
phil2016-03-16d01t04.flac:4ebcb9efa65b201740957e9f068db6d5
phil2016-03-16d01t05.flac:5e924fed17ba0d37c3ae8d97c50d0a4e
phil2016-03-16d01t06.flac:0dbc650665f0e60d49369cb2746f7c19
phil2016-03-16d01t07.flac:ff21667b32ee594fa2e2eb807ea9722e
phil2016-03-16d02t01.flac:f410bac1565c02f6372a8082039229cc
phil2016-03-16d02t02.flac:2cd31c1181100a261c7cb53baf386d4d
phil2016-03-16d02t03.flac:b7398a5029477cbb9ebc20020473ffd7
phil2016-03-16d02t04.flac:edb825cb45cc1282d14b0f947151272e
phil2016-03-16d02t05.flac:b499d5cb0e3f57c3403b91330cb25857
phil2016-03-16d02t06.flac:7abff791f9bf48b0368f785cf5230b55
phil2016-03-16d03t01.flac:f23a9f2c82e8ec76d11f921c137c1d41
phil2016-03-16d03t02.flac:e9050692fbda54aa6544104230a73409
phil2016-03-16d03t03.flac:0140bb1666ace1c4257b028d93cee76d
phil2016-03-16d03t04.flac:5e44fa4ec9131e8b8b45ff70404f5d26
phil2016-03-16d03t05.flac:4c7e86db369a2abb44d01df8765295ca
phil2016-03-16d03t06.flac:eec2191896cd4bb19fb5586720603d57
phil2016-03-16d03t07.flac:fecfe96be45937bccd45641bb1984808

length     expanded size    cdr  WAVE problems  fmt   ratio  filename
    10:28.31      110852156 B   ---   --   ---xx   flac  0.5397  phil2016-03-16d01t01.flac
    10:40.30      112966604 B   ---   --   ---xx   flac  0.5588  phil2016-03-16d01t02.flac
    10:45.62      113923868 B   ---   --   ---xx   flac  0.5065  phil2016-03-16d01t03.flac
     9:51.30      104323004 B   ---   --   ---xx   flac  0.5098  phil2016-03-16d01t04.flac
     9:17.31       98327756 B   ---   --   ---xx   flac  0.5429  phil2016-03-16d01t05.flac
     6:47.39       71886572 B   ---   --   ---xx   flac  0.5075  phil2016-03-16d01t06.flac
    11:01.57      116734508 B   ---   --   ---xx   flac  0.4846  phil2016-03-16d01t07.flac
    10:09.04      107437052 B   ---   --   ---xx   flac  0.5287  phil2016-03-16d02t01.flac
     2:47.64       29609372 B   ---   --   ---xx   flac  0.4473  phil2016-03-16d02t02.flac
    12:39.67      134045228 B   ---   --   ---xx   flac  0.5103  phil2016-03-16d02t03.flac
     8:51.02       93673148 B   ---   --   ---xx   flac  0.4306  phil2016-03-16d02t04.flac
    10:28.52      110901548 B   ---   --   ---xx   flac  0.5203  phil2016-03-16d02t05.flac
    13:04.71      138464636 B   ---   --   ---xx   flac  0.4465  phil2016-03-16d02t06.flac
    10:02.43      106293980 B   ---   --   ---xx   flac  0.5587  phil2016-03-16d03t01.flac
     6:52.20       72723884 B   ---   --   ---xx   flac  0.5162  phil2016-03-16d03t02.flac
     5:59.52       63449948 B   ---   --   ---xx   flac  0.5346  phil2016-03-16d03t03.flac
     8:50.57       93626108 B   ---   --   ---xx   flac  0.5709  phil2016-03-16d03t04.flac
     2:21.03       24879500 B   ---   --   ---xx   flac  0.4097  phil2016-03-16d03t05.flac
     8:51.08       93687260 B   ---   --   ---xx   flac  0.5355  phil2016-03-16d03t06.flac
     1:28.45       15629084 B   ---   --   ---xx   flac  0.4688  phil2016-03-16d03t07.flac
   171:20.18     1813435216 B                            0.5131  (20 files)





















































-


















































































































































































































































































































































































































Show Checksums
ffp
phil2016-03-16d01t01.flac:f823bcb412e4965ad190a8dc9aa1a940
phil2016-03-16d01t02.flac:95d8a3d079fdfbda86fc3359c324986e
phil2016-03-16d01t03.flac:1ad25fefb74361d5af7066e5e6524db9
phil2016-03-16d01t04.flac:4ebcb9efa65b201740957e9f068db6d5
phil2016-03-16d01t05.flac:5e924fed17ba0d37c3ae8d97c50d0a4e
phil2016-03-16d01t06.flac:0dbc650665f0e60d49369cb2746f7c19
phil2016-03-16d01t07.flac:ff21667b32ee594fa2e2eb807ea9722e
phil2016-03-16d02t01.flac:f410bac1565c02f6372a8082039229cc
phil2016-03-16d02t02.flac:2cd31c1181100a261c7cb53baf386d4d
phil2016-03-16d02t03.flac:b7398a5029477cbb9ebc20020473ffd7
phil2016-03-16d02t04.flac:edb825cb45cc1282d14b0f947151272e
phil2016-03-16d02t05.flac:b499d5cb0e3f57c3403b91330cb25857
phil2016-03-16d02t06.flac:7abff791f9bf48b0368f785cf5230b55
phil2016-03-16d03t01.flac:f23a9f2c82e8ec76d11f921c137c1d41
phil2016-03-16d03t02.flac:e9050692fbda54aa6544104230a73409
phil2016-03-16d03t03.flac:0140bb1666ace1c4257b028d93cee76d
phil2016-03-16d03t04.flac:5e44fa4ec9131e8b8b45ff70404f5d26
phil2016-03-16d03t05.flac:4c7e86db369a2abb44d01df8765295ca
phil2016-03-16d03t06.flac:eec2191896cd4bb19fb5586720603d57
phil2016-03-16d03t07.flac:fecfe96be45937bccd45641bb1984808

Comments
Add Comment
Other Sources (comments)
flac2496 Matrix... (0) flac1644 source:... (0) flac24 Source... (0)
Date User Comment