Browse Collections Artists Sources   Search Dates

Add Show    List Management    Help


Grateful Dead 11/07/87
Henry J Kaiser Convention Center, Oakland, CA
Comments Add Comment    Source Collectors    Add to Collection    Add to Want List    History
Source # 138156 Other Sources
Entered by Matt Vernon
Checksums ffp , flac-md5
Disc Counts 0 / 0
Media Size Compressed: 766.28 MB (803507001 bytes)
Uncompressed: 1.48 GB (1588591336 bytes)
Date Circulated
Date Added
04/20/2017
04/19/2017
Source Summary flac16; Sbd > ? > PCM; Sony L-750ESX-HFB Dynamicron EXCELLENT SUPER HIFI VIDEO CASSETTE-> Sony SLO-1800 STEREO VIDEOCASSETTE RECORDER-> Sony PCM-601ESD DIGITAL AUDIO PROCESSOR-> SP/DIF-> Mytek Stereo 192 Sample Rate Converter-> Upsampled to 44.1kHz/24bit-> SP/DIF-> RME FIREFACE 800-> FireWire 400-> Lenovo K450e Desktop PC-> WaveLab 6.11; Mastering by Jamie Waddell in Wavelab 7.2.1; Track, FLAC and Pack by Chris James 
  Archive
Source Information - Download Text | Download Zip
Grateful Dead
Saturday, November 7, 1987
Henry J. Kaiser Convention Center
Oakland, CA

Sbd > ? > PCM

Sony L-750ESX-HFB Dynamicron EXCELLENT SUPER HIFI VIDEO CASSETTE->
Sony SLO-1800 STEREO VIDEOCASSETTE RECORDER->
Sony PCM-601ESD DIGITAL AUDIO PROCESSOR-> SP/DIF->
Mytek Stereo 192 Sample Rate Converter->
Upsampled to 44.1kHz/24bit-> SP/DIF->
RME FIREFACE 800-> FireWire 400-> Lenovo K450e Desktop PC-> WaveLab 6.11

This recording was gratefully supplied by PO and Stucco TINA Holmes.
Thanks to spamjam for the equipment generosity.

Mastering by Jamie Waddell in Wavelab 7.2.1
Track, FLAC and Pack by Chris James

16 bit 44.1kHz
a project **GEMS** Betamania Release, April 20, 2017

--Set One--
01 tuning
02 Hey Pocky Way->
03 Jack Straw
04 Row Jimmy
05 tuning
06 When I Paint My Masterpiece
07 Dupree's Diamond Blues
08 "We Want Phil.."
09 Box of Rain
10 Cassidy->
11 Might as Well

--Set Two--
12 Uncle John's Band->
13 Playin'in the Band->
14 Terrapin Station->
15 Drums->
16 Space->
17 Prelude->
18 I Need A Miracle->
19 Black Peter->
20 Throwing Stones->
21 Not Fade Away
22 crowd
Encore
23 Not Fade Away->
24 Knockin' On Heaven's Door
25 tuning
26 One More Saturday Night

originally shared at www.shnflac.net

    length     expanded size    cdr  WAVE problems  fmt   ratio  filename
     0:11.64        2090972 B   ---   --   ---xx   flac  0.5812  gd1987-11-07s1t01.flac
     6:33.58       69461660 B   ---   --   ---xx   flac  0.5420  gd1987-11-07s1t02.flac
     6:18.43       66780380 B   ---   --   ---xx   flac  0.5303  gd1987-11-07s1t03.flac
    10:06.73      107070140 B   ---   --   ---xx   flac  0.5087  gd1987-11-07s1t04.flac
     1:07.36       11903516 B   ---   --   ---xx   flac  0.3657  gd1987-11-07s1t05.flac
     5:40.01       59978396 B   ---   --   ---xx   flac  0.5254  gd1987-11-07s1t06.flac
     5:46.51       61154396 B   ---   --   ---xx   flac  0.5296  gd1987-11-07s1t07.flac
     2:29.04       26293052 B   ---   --   ---xx   flac  0.3975  gd1987-11-07s1t08.flac
     6:15.18       66192380 B   ---   --   ---xx   flac  0.5016  gd1987-11-07s1t09.flac
     6:29.24       68676092 B   ---   --   ---xx   flac  0.5242  gd1987-11-07s1t10.flac
     5:04.31       53698556 B   ---   --   ---xx   flac  0.5559  gd1987-11-07s2t01.flac
     7:35.24       80318492 B   ---   --   ---xx   flac  0.5335  gd1987-11-07s2t02.flac
     9:16.28       98144300 B   ---   --   ---xx   flac  0.5413  gd1987-11-07s2t03.flac
    13:18.36      140851916 B   ---   --   ---xx   flac  0.5168  gd1987-11-07s2t04.flac
     8:58.56       95034956 B   ---   --   ---xx   flac  0.4359  gd1987-11-07s2t05.flac
     4:36.45       48792284 B   ---   --   ---xx   flac  0.3538  gd1987-11-07s2t06.flac
     1:56.60       20603564 B   ---   --   ---xx   flac  0.4082  gd1987-11-07s2t07.flac
     3:45.33       39767660 B   ---   --   ---xx   flac  0.5678  gd1987-11-07s2t08.flac
     8:13.38       87054620 B   ---   --   ---xx   flac  0.4902  gd1987-11-07s2t09.flac
     9:06.41       96410876 B   ---   --   ---xx   flac  0.5379  gd1987-11-07s2t10.flac
     8:18.25       87906044 B   ---   --   ---xx   flac  0.4949  gd1987-11-07s2t11.flac
     2:12.00       23284844 B   ---   --   ---xx   flac  0.4076  gd1987-11-07s2t12.flac
     1:00.05       10595804 B   ---   --   ---xx   flac  0.4667  gd1987-11-07s2t13.flac
     8:25.00       89082044 B   ---   --   ---xx   flac  0.5094  gd1987-11-07s2t14.flac
     1:51.18       19622780 B   ---   --   ---xx   flac  0.4372  gd1987-11-07s2t15.flac
     5:27.59       57821612 B   ---   --   ---xx   flac  0.5555  gd1987-11-07s2t16.flac
   150:05.46     1588591336 B                            0.5058  (26 files)


Show Checksums
ffp
gd1987-11-07s1t01.flac:0c1f5bf43c18342318addd6670523674
gd1987-11-07s1t02.flac:4214a2a7c9e324e4f0ff32d252b0b3e0
gd1987-11-07s1t03.flac:fabd264e379d5ae56fa9ac5e3982c4d0
gd1987-11-07s1t04.flac:2d7ad1251280ce076ad83758764ef944
gd1987-11-07s1t05.flac:11f72d86715e751bd6f0a5f2bb4f021e
gd1987-11-07s1t06.flac:bc71019181fa8b446f10c98ff65a6e3a
gd1987-11-07s1t07.flac:46579c9c30747a116fbe395979df3646
gd1987-11-07s1t08.flac:89800594a174982886f8ff8c0df58c59
gd1987-11-07s1t09.flac:1cd96124f193bbf524a828e473431ec2
gd1987-11-07s1t10.flac:6b273ce66319c55bf9a2a82022870945
gd1987-11-07s2t01.flac:068eb1c460dccf7fe2e7c86e9ad1d50f
gd1987-11-07s2t02.flac:d7da2d4d4e9be4f15551d2ef75a0f85a
gd1987-11-07s2t03.flac:f860752edcb1628dc386f94feec70ab1
gd1987-11-07s2t04.flac:554fbde8ed5be26e1d238280a4eff862
gd1987-11-07s2t05.flac:42deddf575c6ebba330806f1b480ca23
gd1987-11-07s2t06.flac:2ed960b9f7e4909376c96985286659c9
gd1987-11-07s2t07.flac:7a127a6696656f72b4fc631dde89f1d0
gd1987-11-07s2t08.flac:101bc5b7ac14934d1069d2c61b4ad5fd
gd1987-11-07s2t09.flac:df48b53f814725456afe1092de368ed8
gd1987-11-07s2t10.flac:5e91866cbea98b79b64f1e09608f2047
gd1987-11-07s2t11.flac:7922c00af9746703c60540f0e3003442
gd1987-11-07s2t12.flac:66b9bc4b874978381005765826db266d
gd1987-11-07s2t13.flac:bc653d79bd9ad460d5aeae26b8b20809
gd1987-11-07s2t14.flac:ee397ecc9c97a2fbae9a6704cd5ba92d
gd1987-11-07s2t15.flac:3e9c2015fb6654a9476c22169b3b1e47
gd1987-11-07s2t16.flac:fcc088d933a424e6fef48497ff10e59c
flac-md5
184573cf3c6335670eab10078d845677 *gd1987-11-07s1t01.flac
54bec3824a89431f6ac8a3baa45d655f *gd1987-11-07s1t02.flac
1dcc1e2898cdfdbb1a95e695181af5c7 *gd1987-11-07s1t03.flac
e0e67855b81f7550c8a8b67b8b851b1e *gd1987-11-07s1t04.flac
3805640df518334990fa23b37067bacd *gd1987-11-07s1t05.flac
beaee0f9968237dd7c4ae8c079520ada *gd1987-11-07s1t06.flac
0acc04c3503724adbe3c21b1e8ad3493 *gd1987-11-07s1t07.flac
10970d79219e40ae1725759eb4c36aff *gd1987-11-07s1t08.flac
30cd8532b313b7f1b097efcf4094fbce *gd1987-11-07s1t09.flac
64f25f32d4d4dd7eb70ae87acb2b3f58 *gd1987-11-07s1t10.flac
0d0ad406c24a28b6161abe423729a61b *gd1987-11-07s2t01.flac
08acdd12de15484cc6fac7231ca51f71 *gd1987-11-07s2t02.flac
21c6b27d9e78a1a613891977b6ef2e5d *gd1987-11-07s2t03.flac
03f306a9d076436be2b9774dd64627b4 *gd1987-11-07s2t04.flac
ae3ca01fcb32d81e34371ca3a8de07d5 *gd1987-11-07s2t05.flac
dcb007d42989477aa32b05d3eae45c64 *gd1987-11-07s2t06.flac
dd8e53bad5c90b4dc001e943cab97ec1 *gd1987-11-07s2t07.flac
c5cac5c6d843f90366f594a94cdc12f8 *gd1987-11-07s2t08.flac
4013f2394ee218d6bb39e4aeb49cf88a *gd1987-11-07s2t09.flac
976205498b10e2e4d2808439f4457e28 *gd1987-11-07s2t10.flac
dfa11343a7c5090644c7639275a05eb7 *gd1987-11-07s2t11.flac
7ef5a7143cd2e7f4cfdbde43504b26f9 *gd1987-11-07s2t12.flac
646952feb5b5436dd57cd23f1b300570 *gd1987-11-07s2t13.flac
98cc9c3d344763863bdfd760b7db0914 *gd1987-11-07s2t14.flac
1bf69a108a20680c3ed7d284d0d9722b *gd1987-11-07s2t15.flac
f10ea115ad0f031ed115339654402665 *gd1987-11-07s2t16.flac

Comments
Add Comment
Other Sources (comments)
SBD > PCM > CDR; Transfer:... (0) flac16 Remaster of... (0) flac16; Recording... (0) flac24; First... (0) flac16; First... (0) flac16; Recording... (0)
Date User Comment