Browse Collections Artists Sources   Search Dates

Add Show    List Management    Help


Garcia 11/03/81
Painter's Mill, Owings Mills, MD
Comments Add Comment    Source Collectors    Add to Collection    Add to Want List    History
Source # 138159 Other Sources
Entered by Joe Jupille
Checksums jgb1981-11-03s2.md5 , jgb1981-11-03s2.ffp
Disc Counts 0 / 0
Media Size Compressed: 400.91 MB (420388864 bytes)
Uncompressed: 717.18 MB (752019336 bytes)
Date Circulated
Date Added
04/20/2017
04/20/2017
Source Summary JGB, flac1644; 2nd Set, Sources: Matrix of SBD ID-15099 & AUD ID-138117. Transfer: WAV > Wavelab > CD-Wave > TLH > FLAC 1644 tagged, Andrew F. 04/2017 
Source Information - Download Text | Download Zip
JERRY GARCIA BAND
Painters Mill
Owings Mills MD
11-03-1981
Second Set
*Matrix*

s2t01 The Harder They Come
s2t02 Knockin' On Heaven's Door
s2t03 Don't Let Go
s2t04 The Night They Drove Old Dixie Down
s2t05 Dear Prudence
s2t06 Midnight Moonlight

Sources: Matrix of SBD ID-15099 & AUD ID-138117.

Transfer: WAV > Wavelab > CD-Wave > TLH > FLAC 1644 tagged, Andrew F. 04/2017

Note: The mix is aprx 70% SBD & 30% AUD. SBD only in Dixie 4:57 to 5:39, AUD
only in Dixie 5:39 to 7:40, AUD only in Midnight Moonlight from 6:24 to 8:13.

    length     expanded size    cdr  WAVE problems  fmt   ratio  filename
    12:36.61      133501916 B   ---   --   ---xx   flac  0.5653  jgb1981-11-03s2t01.flac
    14:28.33      153192860 B   ---   --   ---xx   flac  0.5593  jgb1981-11-03s2t02.flac
    14:04.34      148961612 B   ---   --   ---xx   flac  0.5618  jgb1981-11-03s2t03.flac
     8:30.24       90020492 B   ---   --   ---xx   flac  0.5384  jgb1981-11-03s2t04.flac
    13:09.17      139219628 B   ---   --   ---xx   flac  0.5537  jgb1981-11-03s2t05.flac
     8:13.67       87122828 B   ---   --   ---xx   flac  0.5719  jgb1981-11-03s2t06.flac
    71:03.11      752019336 B                            0.5588  (6 files)

No errors occured.


Show Checksums
jgb1981-11-03s2.md5
f7e9bb5ab9463ee8c9f1f0297c94b3ca *jgb1981-11-03s2t01.flac
b62a98efff644f902e6295eaca87e22d *jgb1981-11-03s2t02.flac
d89d7ab34ecef31f411422fe72473042 *jgb1981-11-03s2t03.flac
15489850a654e1e25d5ae3d71d341094 *jgb1981-11-03s2t04.flac
7737ab339c4fb3a55e930d81624139d7 *jgb1981-11-03s2t05.flac
f2e8892c94b02f266286f1fd7cc26af1 *jgb1981-11-03s2t06.flac
jgb1981-11-03s2.ffp
jgb1981-11-03s2t01.flac:eb6f0daedf9c5e03eed5cba73bdd6687
jgb1981-11-03s2t02.flac:7a80223280c883f9ef335e5943cf7878
jgb1981-11-03s2t03.flac:8eb997bf309316f59f4b5de7dcaef806
jgb1981-11-03s2t04.flac:a89480f3d51c60272ad5aa03340f8438
jgb1981-11-03s2t05.flac:d246903e85d08625b057f270e949333e
jgb1981-11-03s2t06.flac:5ef1e45d7f467d9e82f70fea0bcb3bc1

Comments
Add Comment
Other Sources (comments)
JGB, set II: MSC > 2C >... (3) JGB, flac1644; Set One: AUD... (0) JGB; flac1644; s2 partial;... (2)
Date User Comment