Browse Collections Artists Sources   Search Dates

Add Show    List Management    Help


Grateful Dead 03/26/87
Hartford Civic Center, Hartford, CT
Comments Add Comment    Source Collectors    Add to Collection    Add to Want List    History
Source # 138166 Other Sources
Entered by Matt Vernon
Checksums ffp , flac-md5
Disc Counts 0 / 0
Media Size Compressed: 928.15 MB (973238272 bytes)
Uncompressed: 1.47 GB (1579949912 bytes)
Date Circulated
Date Added
04/22/2017
04/21/2017
Source Summary flac16; Recording Info: Ultra Matrix SBD > Cassette Master (TDK MA-R90); Transfer Info: Cassette Master (Nakamichi CR-7A) > Tascam DA-3000 (DSF 1-bit/5.8 MHz) > KORG AudioGate 4 > Adobe Audition CC 2015 > Samplitude Pro X3 Suite > FLAC/24; All Transfers and Mastering By Charlie Miller, This is shnid 138162 24 > 16 
  Archive
Source Information - Download Text | Download Zip
Grateful Dead - March 26, 1987
Hartford Civic Center - Hartford, CT

Recording Info:
Ultra Matrix SBD > Cassette Master (TDK MA-R90)

Transfer Info:
Cassette Master (Nakamichi CR-7A) > Tascam DA-3000 (DSF 1-bit/5.8 MHz) >
KORG AudioGate 4 > Adobe Audition CC 2015 > Samplitude Pro X3 Suite > FLAC/24
(1 Disc FLAC)

All Transfers and Mastering By Charlie Miller
[email protected]
March 26, 2017

Notes:
-- This show is why there is an '87' in my email address
-- The low end on this recording is absolutely thunderous
-- Two sets of masters were used to make this show complete
-- This is shnid 138162 24 > 16

Set 1:
01 - Tuning
02 - In The Midnight Hour
03 - Cold Rain And Snow
04 - C.C. Rider
05 - Row Jimmy
06 - My Brother Esau
07 - When Push Comes To Shove >
08 - Desolation Row >
09 - Bird Song >
10 - Promised Land

Set 2:
11 - China Cat Sunflower >
12 - I Know You Rider >
13 - Looks Like Rain >
14 - He's Gone >
15 - Drums >
16 - Space >
17 - I Need A Miracle >
18 - Black Peter >
19 - Around And Around >
20 - Good Lovin'

Encore:
21 - Encore Break
22 - The Mighty Quinn (Quinn The Eskimo)


SHNTOOL OUTPUT:
    length     expanded size    cdr  WAVE problems  fmt   ratio  filename
     1:09.40       12265724 B   ---   --   ---xx   flac  0.5982  01 Tuning.flac
     4:17.09       45356012 B   ---   --   ---xx   flac  0.6422  02 In The Midnight Hour.flac
     6:56.09       73403612 B   ---   --   ---xx   flac  0.6274  03 Cold Rain And Snow.flac
     8:42.18       92123180 B   ---   --   ---xx   flac  0.6186  04 CC Rider.flac
    13:10.73      139527740 B   ---   --   ---xx   flac  0.5915  05 Row Jimmy.flac
     4:47.72       50796188 B   ---   --   ---xx   flac  0.6323  06 My Brother Esau.flac
     4:39.23       49269740 B   ---   --   ---xx   flac  0.6515  07 When Push Comes To Shove.flac
     8:54.46       94305836 B   ---   --   ---xx   flac  0.6260  08 Desolation Row.flac
    10:24.41      110170076 B   ---   --   ---xx   flac  0.6211  09 Bird Song.flac
     4:39.05       49227404 B   ---   --   ---xx   flac  0.6517  10 Promised Land.flac
     6:03.38       64122620 B   ---   --   ---xx   flac  0.6141  11 China Cat Sunflower.flac
     5:25.29       57398252 B   ---   --   ---xx   flac  0.6337  12 I Know You Rider.flac
     8:25.19       89126732 B   ---   --   ---xx   flac  0.6086  13 Looks Like Rain.flac
    13:22.08      141491660 B   ---   --   ---xx   flac  0.6048  14 He's Gone.flac
     8:32.04       90326252 B   ---   --   ---xx   flac  0.6174  15 Drums.flac
     7:47.08       82397660 B   ---   --   ---xx   flac  0.5106  16 Space.flac
     4:23.35       46475564 B   ---   --   ---xx   flac  0.6452  17 I Need A Miracle.flac
     9:17.71       98421836 B   ---   --   ---xx   flac  0.5958  18 Black Peter.flac
     3:47.27       40106348 B   ---   --   ---xx   flac  0.6416  19 Around And Around.flac
     7:37.56       80746556 B   ---   --   ---xx   flac  0.6642  20 Good Lovin'.flac
     1:36.07       16950908 B   ---   --   ---xx   flac  0.5944  21 Encore Break.flac
     5:17.09       55940012 B   ---   --   ---xx   flac  0.6420  22 The Mighty Quinn (Quinn The Eskimo).flac
   149:16.47     1579949912 B                            0.6160  (22 files)





Show Checksums
ffp
01 Tuning.flac:59b9a52bd8449a2d211edf5583d7508c
02 In The Midnight Hour.flac:dc1b6fe33cd4cc3bc46d23408d74f21f
03 Cold Rain And Snow.flac:b51c1b2f6f10081ba9693d463ffa60bf
04 CC Rider.flac:02fd578bef97debcc6e13def26c68bde
05 Row Jimmy.flac:663877a14929822a46c81425ede44159
06 My Brother Esau.flac:5ca231901776628c100f9d278c7c9122
07 When Push Comes To Shove.flac:1f90a3ce24f159706c3b7b2a8128f480
08 Desolation Row.flac:fbd2f5229cb8753f1c39a604107802db
09 Bird Song.flac:c18d4c916013a9b1ea983acf7b8c554d
10 Promised Land.flac:5c2ca7ea66360f6a978e55382dbe18a9
11 China Cat Sunflower.flac:b058f0c717d909a472cd7a9becce05eb
12 I Know You Rider.flac:41091538ba2d1856afe3d04c861e919c
13 Looks Like Rain.flac:39d3165d5d3463f671632d4a6e2f911c
14 He's Gone.flac:80119c22b83750cf5e7253d50846942a
15 Drums.flac:44aae4df9638ca589c4b4187c798364e
16 Space.flac:6ab798c9372743b9be1c9cd94732ce23
17 I Need A Miracle.flac:113b01474057b27586ef2797683ab82f
18 Black Peter.flac:65c122cf64ea3ccbd6c882f20283ad67
19 Around And Around.flac:c6c2185fba8664ff78694944dad88e4c
20 Good Lovin'.flac:8b69dfccbbd7c80c932ff48d64ae6082
21 Encore Break.flac:a6206da351e5016cfe169afd0667fd18
22 The Mighty Quinn (Quinn The Eskimo).flac:82855f28df91dee2ec2db436401c04a7
flac-md5
61cdcbb0ffe91156649ac2338076f447 *01 Tuning.flac
9a3db12bf011a14b6d681d7030df9432 *02 In The Midnight Hour.flac
d6d5991f2042ee83614ed9a8b81ec919 *03 Cold Rain And Snow.flac
667ab97c452dd9b64c0a0f4afb6304f4 *04 CC Rider.flac
ff6940454d494c6e0d833beb52e24c1e *05 Row Jimmy.flac
ec9e5a065b6a4545908b5566abc83e69 *06 My Brother Esau.flac
174e5460a92912323489834d6d513a01 *07 When Push Comes To Shove.flac
04f8a1569cc9d7c2bb8aa1ae368732c6 *08 Desolation Row.flac
6e8a6463ab86249d8f79b1b12f94b52d *09 Bird Song.flac
a2cd3f692f25c2f927050d62b155660c *10 Promised Land.flac
ed0da01b5dd02deb7e758778ed49c44a *11 China Cat Sunflower.flac
869f35aeca88049b6c14723a7c3f7975 *12 I Know You Rider.flac
d859495393402ae2ce5b3c1631b07ebe *13 Looks Like Rain.flac
436e7097e4458c83a9222671e291e934 *14 He's Gone.flac
a1d396eb8e9884d753faa4151d15d0fa *15 Drums.flac
60de3b2705140ac37088e347c512bac4 *16 Space.flac
1a1e751540bafd4c400ffed15e9e9540 *17 I Need A Miracle.flac
f684fcae73c6b4536ec15a53cc2f8dc7 *18 Black Peter.flac
ad0effa0149fa2a308c02f97594f9f7a *19 Around And Around.flac
389723f3a82d7f39bbb56446985f76d5 *20 Good Lovin'.flac
db9234c524a8b735e54f81598bf2384a *21 Encore Break.flac
e79ef7c216f4d1c364489f7710f858b0 *22 The Mighty Quinn (Quinn The Eskimo).flac

Comments
Add Comment
Other Sources (comments)
Set I info Source: SBD... (2) flac16; Nakamichi... (0) flac16; taper : Joe... (0) flac16; Source: (2x)... (0) flac16; Nakamichi... (0) flac24; Set 2... (0) flac24; 2 nakamichi... (0) flac24; Recording... (0) flac16; Robert... (0)
Date User Comment