Browse Collections Artists Sources   Search Dates

Add Show    List Management    Help


Grateful Dead 10/02/81
Rainbow Theater, London, England
Comments Add Comment    Source Collectors    Add to Collection    Add to Want List    History
Source # 138169 Other Sources
Entered by Matt Vernon
Checksums flac-md5 , ffp
Disc Counts 0 / 0
Media Size
Uncompressed: 1.63 GB (1750032616 bytes)
Date Circulated
Date Added
04/25/2017
04/25/2017
Source Summary flac16; Source: Audience recording > Sony ECM-99 > JVC CD-1635 > Master Cassettes (C90 Maxell UD XLII x 2); Taped by Peter Williams from the balcony, about halfway between centre and right wall; Transfer: Cassette > Nakamichi CD1 > Tascam DR-100mkIII > wav 24/176.4; Lineage: wav 24/176.4 > Adobe Audition CC > iZotope RX4 Advanced > iZotope 5 Advanced > iZotope RX4 Advanced > wav 16/44.1 > > CD Wave > TLH > Flac 16; edited and mastered SIRMick 
  Archive
Source Information - Download Text | Download Zip
Grateful Dead
Rainbow Theatre,
London, England
10/02/1981


Source: Audience recording > Sony ECM-99 > JVC CD-1635 > Master Cassettes (C90 Maxell UD XLII x 2)
              Taped by Peter Williams from the balcony,  about halfway between centre and right wall
Transfer: Cassette > Nakamichi CD1 > Tascam DR-100mkIII > wav 24/176.4
Lineage: wav 24/176.4 > Adobe Audition CC > iZotope RX4 Advanced > iZotope 5 Advanced > iZotope RX4 Advanced >
                wav 16/44.1 >  > CD Wave > TLH > Flac 16



Set I

01   tuning
02   Minglewood Blues
03   Sugaree >
04   C C Rider
05   crowd/tuung
06   Cumberland Blues
07   Cassidy
08   Dire Wolf
09   Mama Tried >
10   Mexicali Blues
11   Teddy Bear's Picnic tuning
12   Althea
13   Lost Sailor >
14   Saint Of Circumstance


Set II

01   crowd/tuning
02   Playin' In The Band >
03   Shakedown Street >
04   Bertha >
05   Jam >
06   Drums >
07   Space >
08   Spanish Jam >
09   Truckin' >
10   Black Peter >
11   Sugar Magnolia

encore

12   U.S. Blues




Notes:

- The following patches have been made using shnid 80289

  Drums - 7:41 - 9:03
  Sugar Magnolia - 5:17 - 8:20
  U.S. Blues - first 2 seconds, 0:58 - 2:55

in addition a few tape pauses and several crows sections for continuity.

- I made a few level adjustments.



Thanks to Peter Williams for lending me his masters.



transferred, edited and mastered
SIRMick
April 2017


shntool output:

    length     expanded size    cdr  WAVE problems  fmt   ratio  filename
     0:35.23        6228140 B   ---   --   ---xx   flac  0.6338  gd1981-10-02s1t01.flac
     7:13.34       76461212 B   ---   --   ---xx   flac  0.6195  gd1981-10-02s1t02.flac
    10:47.14      114163772 B   ---   --   ---xx   flac  0.6122  gd1981-10-02s1t03.flac
     7:53.29       83505452 B   ---   --   ---xx   flac  0.6128  gd1981-10-02s1t04.flac
     1:14.01       13055996 B   ---   --   ---xx   flac  0.5694  gd1981-10-02s1t05.flac
     5:33.23       58795340 B   ---   --   ---xx   flac  0.6096  gd1981-10-02s1t06.flac
     5:43.62       60651068 B   ---   --   ---xx   flac  0.6188  gd1981-10-02s1t07.flac
     3:21.44       35559932 B   ---   --   ---xx   flac  0.6210  gd1981-10-02s1t08.flac
     2:34.16       27203276 B   ---   --   ---xx   flac  0.6318  gd1981-10-02s1t09.flac
     5:10.24       54740492 B   ---   --   ---xx   flac  0.6238  gd1981-10-02s1t10.flac
     1:09.26       12232796 B   ---   --   ---xx   flac  0.5291  gd1981-10-02s1t11.flac
     9:00.10       95279564 B   ---   --   ---xx   flac  0.6052  gd1981-10-02s1t12.flac
     7:22.32       78044108 B   ---   --   ---xx   flac  0.5656  gd1981-10-02s1t13.flac
     7:26.14       78707372 B   ---   --   ---xx   flac  0.6386  gd1981-10-02s1t14.flac
     1:17.28       13648700 B   ---   --   ---xx   flac  0.5453  gd1981-10-02s2t01.flac
    11:31.72      122061788 B   ---   --   ---xx   flac  0.6325  gd1981-10-02s2t02.flac
    13:10.32      139431308 B   ---   --   ---xx   flac  0.6440  gd1981-10-02s2t03.flac
     7:08.62       75645068 B   ---   --   ---xx   flac  0.6446  gd1981-10-02s2t04.flac
     4:40.23       49446140 B   ---   --   ---xx   flac  0.6688  gd1981-10-02s2t05.flac
     9:19.03       98614700 B   ---   --   ---xx   flac  0.6105  gd1981-10-02s2t06.flac
     5:09.51       54627596 B   ---   --   ---xx   flac  0.4976  gd1981-10-02s2t07.flac
     4:40.00       49392044 B   ---   --   ---xx   flac  0.5663  gd1981-10-02s2t08.flac
     7:55.70       83954684 B   ---   --   ---xx   flac  0.6006  gd1981-10-02s2t09.flac
    11:25.25      120892844 B   ---   --   ---xx   flac  0.5497  gd1981-10-02s2t10.flac
     8:38.26       91436396 B   ---   --   ---xx   flac  0.6528  gd1981-10-02s2t11.flac
     5:18.67       56252828 B   ---   --   ---xx   flac  0.6564  gd1981-10-02s2t12.flac
   165:20.61     1750032616 B                            0.6116  (26 files)


Show Checksums
flac-md5
06f6fe340eca04e690254eea0c75deb8 *gd1981-10-02s1t01.flac
493500bb6596f9f4b5221ef2afd318b4 *gd1981-10-02s1t02.flac
1c1011897aa56a5938ef1aa94d31a779 *gd1981-10-02s1t03.flac
7df3c49ba55fc517c17c709d85b67720 *gd1981-10-02s1t04.flac
a4582efa319bfaa9a74e335f0fd32811 *gd1981-10-02s1t05.flac
50a7b09d8815e041ad8f1dcc98e093b8 *gd1981-10-02s1t06.flac
b22627aba8ce964ac9b1e4b8e310648e *gd1981-10-02s1t07.flac
1e57b0375e2bff7a10e700cfc682cbaa *gd1981-10-02s1t08.flac
0f7be1122276b9a254516b390bd8146d *gd1981-10-02s1t09.flac
8c20341e7d4f3ef4e4890bfe6f57ede8 *gd1981-10-02s1t10.flac
5843925d6a803f9d0534d2a93909ae69 *gd1981-10-02s1t11.flac
3f52c0657a65bf8deba8e88b25b7006c *gd1981-10-02s1t12.flac
e0e32ca8cf63bf2306490070824f2e60 *gd1981-10-02s1t13.flac
a8c4e1113cbf47e8b5150469bd6addae *gd1981-10-02s1t14.flac
0fddb59b68cc6b5c9295e96eeaf3448e *gd1981-10-02s2t01.flac
4a69026ecfe1940bf6d99740ee1fba58 *gd1981-10-02s2t02.flac
bc7803a06f25155f4d141e6e3ab45cd9 *gd1981-10-02s2t03.flac
6994e16e89b2be4b250ae8cd28372d14 *gd1981-10-02s2t04.flac
ce97b2eb3e2ef14a87710f8c9edd0d27 *gd1981-10-02s2t05.flac
f9a447de59050c0a31b682644a8dc2b4 *gd1981-10-02s2t06.flac
2d1cd220fbebb5e2fcefc8f61fc69a0e *gd1981-10-02s2t07.flac
00089cc99569e6300fc731cfe867cb1c *gd1981-10-02s2t08.flac
9e30b8a2435b80b1a22343b55e8c9c07 *gd1981-10-02s2t09.flac
ee7d72349ccecaa59aba5bb53abe8125 *gd1981-10-02s2t10.flac
6a3665da1540179b96bd7250b544936b *gd1981-10-02s2t11.flac
6427deef6371bbefa050752fdf399139 *gd1981-10-02s2t12.flac
ffp
gd1981-10-02s1t01.flac:dabbc1046477a7187c94fc24820caf89
gd1981-10-02s1t02.flac:21851f8a8c744b3febb2df531ee99f84
gd1981-10-02s1t03.flac:311649f5ef4fd8a9447b1251835ea604
gd1981-10-02s1t04.flac:8d1a717785a349ab780c450a3157df01
gd1981-10-02s1t05.flac:1a2d77e79e2065dc3cd71eadacaa5203
gd1981-10-02s1t06.flac:34b4300223cc0a2f9e8e76e433e19efc
gd1981-10-02s1t07.flac:bf9a2806baab840fff7d0cb7f65d8667
gd1981-10-02s1t08.flac:8dabbc38a61f3330121c598f34a37a24
gd1981-10-02s1t09.flac:4663fb428b61aca8596081108ddeddd5
gd1981-10-02s1t10.flac:844db4f8d85211f84042886a1d3e3ae3
gd1981-10-02s1t11.flac:7fe30f4656c41bd8c3e61ff720c31c92
gd1981-10-02s1t12.flac:999aacd0fcb1f0342bb2dfe43d5a0aa4
gd1981-10-02s1t13.flac:b9967a0d89a7ca10b6409e18d625cfe7
gd1981-10-02s1t14.flac:1e49c392242ef226e02c7b96015872c3
gd1981-10-02s2t01.flac:dee5142fc828432d7c0d11c0b1ad975c
gd1981-10-02s2t02.flac:2aca0683e544fa323ee8de70f02a8594
gd1981-10-02s2t03.flac:61280ae066bb07a828e629f8b51adeed
gd1981-10-02s2t04.flac:e7ffc05ba5ef60f22e3183c19bca0be8
gd1981-10-02s2t05.flac:722e2c5ec4f1610dc2a33bee2d530cdf
gd1981-10-02s2t06.flac:4471d9a66f4d0cfba7364c4c389c4aa5
gd1981-10-02s2t07.flac:e34a70986054f14b4dc360d22b3a60a1
gd1981-10-02s2t08.flac:ce98b3e10d6f723c3bd4160023628122
gd1981-10-02s2t09.flac:7124ad21e3e089149ea2154416e326df
gd1981-10-02s2t10.flac:b468586be2296045c9251f43fbd6a235
gd1981-10-02s2t11.flac:736639da6f682e985d6fecceacdfa6c6
gd1981-10-02s2t12.flac:ec7193f98b71f3bbe82bbe9e4072b92e

Comments
Add Comment
Other Sources (comments)
sbd> reel> ?> dats> wave>... (1) flac16; source: aud... (0) flac16; Set 2, Beyer... (0) flac16; Recording... (0) flac16/96kHz;... (0) flac24/176.4kHz;... (0)
Date User Comment