Browse Collections Artists Sources   Search Dates

Add Show    List Management    Help


Grateful Dead 10/02/81
Rainbow Theater, London, England
Comments Add Comment    Source Collectors    Add to Collection    Add to Want List    History
Source # 138171 Other Sources
Entered by Matt Vernon
Checksums flac-md5 , ffp
Disc Counts 0 / 0
Media Size
Uncompressed: 9.78 GB (10500189976 bytes)
Date Circulated
Date Added
04/25/2017
04/25/2017
Source Summary flac24/176.4kHz; Source: Audience recording > Sony ECM-99 > JVC CD-1635 > Master Cassettes (C90 Maxell UD XLII x 2); Taped by Peter Williams from the balcony, about halfway between centre and right wall; Transfer: Cassette > Nakamichi CD1 > Tascam DR-100mkIII > wav 24/176.4; Lineage: wav 24/176.4 > Adobe Audition CC > iZotope RX4 Advanced > iZotope 5 Advanced > CD Wave > TLH > Flac 24; edited and mastered SIRMick 
  Archive
Source Information - Download Text | Download Zip
Grateful Dead
Rainbow Theatre,
London, England
10/02/1981


Source: Audience recording > Sony ECM-99 > JVC CD-1635 > Master Cassettes (C90 Maxell UD XLII x 2)
              Taped by Peter Williams from the balcony,  about halfway between centre and right wall
Transfer: Cassette > Nakamichi CD1 > Tascam DR-100mkIII > wav 24/176.4
Lineage: wav 24/176.4 > Adobe Audition CC > iZotope RX4 Advanced > iZotope 5 Advanced > CD Wave >
                TLH > Flac 24



Set I

01   tuning
02   Minglewood Blues
03   Sugaree >
04   C C Rider
05   crowd/tuung
06   Cumberland Blues
07   Cassidy
08   Dire Wolf
09   Mama Tried >
10   Mexicali Blues
11   Teddy Bear's Picnic tuning
12   Althea
13   Lost Sailor >
14   Saint Of Circumstance


Set II

01   crowd/tuning
02   Playin' In The Band >
03   Shakedown Street >
04   Bertha >
05   Jam >
06   Drums >
07   Space >
08   Spanish Jam >
09   Truckin' >
10   Black Peter >
11   Sugar Magnolia

encore

12   U.S. Blues




Notes:

- The following patches have been made using shnid 80289

  Drums - 7:41 - 9:03
  Sugar Magnolia - 5:17 - 8:20
  U.S. Blues - first 2 seconds, 0:58 - 2:55

in addition a few tape pauses and several crows sections for continuity.

- I made a few level adjustments.



Thanks to Peter Williams for lending me his masters.



transferred, edited and mastered
SIRMick
April 2017


shntool output:

    length     expanded size    cdr  WAVE problems  fmt   ratio  filename
     0:35.307      37368620 B   cxx   --   ---xx   flac  0.5084  gd1981-10-02s1t01.flac
     7:13.453     458767052 B   cxx   --   ---xx   flac  0.5021  gd1981-10-02s1t02.flac
    10:47.187     684982412 B   cxx   --   ---xx   flac  0.5000  gd1981-10-02s1t03.flac
     7:53.387     501032492 B   cxx   --   ---xx   flac  0.4995  gd1981-10-02s1t04.flac
     1:14.013      78335756 B   cxx   --   ---xx   flac  0.4582  gd1981-10-02s1t05.flac
     5:33.307     352771820 B   cxx   --   ---xx   flac  0.4964  gd1981-10-02s1t06.flac
     5:43.827     363906188 B   cxx   --   ---xx   flac  0.5054  gd1981-10-02s1t07.flac
     3:21.587     213359372 B   cxx   --   ---xx   flac  0.5051  gd1981-10-02s1t08.flac
     2:34.213     163219436 B   cxx   --   ---xx   flac  0.5170  gd1981-10-02s1t09.flac
     5:10.320     328442732 B   cxx   --   ---xx   flac  0.5090  gd1981-10-02s1t10.flac
     1:09.347      73396556 B   cxx   --   ---xx   flac  0.4394  gd1981-10-02s1t11.flac
     9:00.133     571677164 B   cxx   --   ---xx   flac  0.4968  gd1981-10-02s1t12.flac
     7:22.427     468264428 B   cxx   --   ---xx   flac  0.4683  gd1981-10-02s1t13.flac
     7:26.187     472244012 B   cxx   --   ---xx   flac  0.5230  gd1981-10-02s1t14.flac
     1:17.373      81891980 B   cxx   --   ---xx   flac  0.5858  gd1981-10-02s2t01.flac
    11:31.960     732370508 B   cxx   --   ---xx   flac  0.6116  gd1981-10-02s2t02.flac
    13:10.427     836587628 B   cxx   --   ---xx   flac  0.6174  gd1981-10-02s2t03.flac
     7:08.827     453870188 B   cxx   --   ---xx   flac  0.6187  gd1981-10-02s2t04.flac
     4:40.307     296676620 B   cxx   --   ---xx   flac  0.6310  gd1981-10-02s2t05.flac
     9:19.040     591687980 B   cxx   --   ---xx   flac  0.6011  gd1981-10-02s2t06.flac
     5:09.680     327765356 B   cxx   --   ---xx   flac  0.4287  gd1981-10-02s2t07.flac
     4:40.000     296352044 B   cxx   --   ---xx   flac  0.4616  gd1981-10-02s2t08.flac
     7:55.933     503727884 B   cxx   --   ---xx   flac  0.4895  gd1981-10-02s2t09.flac
    11:25.333     725356844 B   cxx   --   ---xx   flac  0.4533  gd1981-10-02s2t10.flac
     8:38.347     548618156 B   cxx   --   ---xx   flac  0.5241  gd1981-10-02s2t11.flac
     5:18.893     337516748 B   cxx   --   ---xx   flac  0.5225  gd1981-10-02s2t12.flac
   165:20.813   10500189976 B                            0.5268  (26 files)


Show Checksums
flac-md5
f884f48a8af1dd1e7f0bc2ab16df19dd *gd1981-10-02s1t01.flac
c34768e8bb8c2b853e3f32d2bdf652da *gd1981-10-02s1t02.flac
38800d55336987cf44807902fc729740 *gd1981-10-02s1t03.flac
6d2fc764b02085b557c6e423127e661f *gd1981-10-02s1t04.flac
f6c2cd732dc56b64ccf80242f1de57fc *gd1981-10-02s1t05.flac
1c1614a66bce607b696c3e13de56538b *gd1981-10-02s1t06.flac
d71149c2e801144356b0d1c237321c2c *gd1981-10-02s1t07.flac
e603ef0298e251790b19b3bdf2878199 *gd1981-10-02s1t08.flac
aacb8a2a0fae2744a9e2d8af1b0686b9 *gd1981-10-02s1t09.flac
57593c537b6f82b9ce7bee4182ca45e2 *gd1981-10-02s1t10.flac
c7a36362c4ff50efdc573d865af91841 *gd1981-10-02s1t11.flac
03751ed43b0957b8faac397eb4a9942f *gd1981-10-02s1t12.flac
eb316eb62c64cfc8bb2de3c956cbfef1 *gd1981-10-02s1t13.flac
fd8dd1b6f9b6bca41e879a662c6c2242 *gd1981-10-02s1t14.flac
17d2c9199a17de6740d50495b073bc89 *gd1981-10-02s2t01.flac
2edc9da461114ff3158a8bcf2dc8e569 *gd1981-10-02s2t02.flac
6e357e3b8bfa8fc492b997336f9e52d8 *gd1981-10-02s2t03.flac
889fef49f78abe278fdf85e982f940d2 *gd1981-10-02s2t04.flac
6ba0de2238eb9c3838fe046c1e326258 *gd1981-10-02s2t05.flac
1721c2f2e0f6174af4b35f465d60ef42 *gd1981-10-02s2t06.flac
932014725f88158555abe2019c52a8e0 *gd1981-10-02s2t07.flac
5cfd17e5d759faf61ee03dc013742db0 *gd1981-10-02s2t08.flac
83ed301dbab4b0c3d18d0182dd8fbecd *gd1981-10-02s2t09.flac
152f30dfc6554ab6326cfacef018a6cf *gd1981-10-02s2t10.flac
9b60c693397a5c69f6979e97a374e927 *gd1981-10-02s2t11.flac
f688fe269d9c76ce31026cdadbf50eed *gd1981-10-02s2t12.flac
ffp
gd1981-10-02s1t01.flac:ea98e61d7b5a2dd32af69a7afced8ad3
gd1981-10-02s1t02.flac:57bb165326b974a11422f17835cc42cf
gd1981-10-02s1t03.flac:51efd5278c3609ba0a36e07df96b4683
gd1981-10-02s1t04.flac:b82a049768f43bc3198c055a50495a3e
gd1981-10-02s1t05.flac:b79ccadc0025106a71b460191cceef70
gd1981-10-02s1t06.flac:a8bf0346e273d07c31a1516600579de6
gd1981-10-02s1t07.flac:b5393460ef2bed5b8e65444d57737a82
gd1981-10-02s1t08.flac:c34884ee12fdbba2112d3a6c6186abc2
gd1981-10-02s1t09.flac:d5685b6daf2a0e9228111df9a66bcd75
gd1981-10-02s1t10.flac:e6ce1916ca745a00f39d636bb84f3ecc
gd1981-10-02s1t11.flac:84d669f9cfe8527a4650d89294d34b84
gd1981-10-02s1t12.flac:c29bc184663f30f6a26255d20b212d85
gd1981-10-02s1t13.flac:aac4773f23ec31de3192b44c0aeff1db
gd1981-10-02s1t14.flac:75efb2504e0469d02ea96cb0c1044e72
gd1981-10-02s2t01.flac:4914ebb70fd2b8a8ec1b184889be30bc
gd1981-10-02s2t02.flac:979f08add725e0e2c9f463ce2836dd1c
gd1981-10-02s2t03.flac:33488c3ec0edc51dcf9bdab56b29ad44
gd1981-10-02s2t04.flac:dddc399c6ed71d266ef1adb1520a3c57
gd1981-10-02s2t05.flac:ef3c4562ea616b703c6df07a808db898
gd1981-10-02s2t06.flac:f6ed0a9356d8214e5106f179809445f5
gd1981-10-02s2t07.flac:e16e0a1a4dc8675dd55be05f7443f465
gd1981-10-02s2t08.flac:de0508a9e3533f6d7342eeef0b73ee59
gd1981-10-02s2t09.flac:cdabbe837b73a7ed2d0c0bba5dae84ce
gd1981-10-02s2t10.flac:47f53a70d4a3c84adbe935f30889a324
gd1981-10-02s2t11.flac:52d8fc3ef87bfacfa078743f77afc717
gd1981-10-02s2t12.flac:e952d81c52ab2fb5c10a0a3b6cb0c014

Comments
Add Comment
Other Sources (comments)
sbd> reel> ?> dats> wave>... (1) flac16; source: aud... (0) flac16; Set 2, Beyer... (0) flac16; Recording... (0) flac16; Source:... (0) flac16/96kHz;... (0)
Date User Comment