Browse Collections Artists Sources   Search Dates

Add Show    List Management    Help


Grateful Dead 10/06/81
Rainbow Theater, London, England
Comments Add Comment    Source Collectors    Add to Collection    Add to Want List    History
Source # 138198 Other Sources
Entered by Matt Vernon
Checksums flac-md5 , ffp
Disc Counts 0 / 0
Media Size Compressed: 4 GB (4299423492 bytes)
Uncompressed: 6.04 GB (6487926992 bytes)
Date Circulated
Date Added
04/29/2017
04/29/2017
Source Summary flac24; Audience recording > Sony ECM-99 > JVC CD-1635 > Master Cassettes (C90 Maxell UD XLII x 3); Taped by Peter Williams from middle of stalls, just right of centre and about 1/3 back from front of stage; Transfer: Cassette > Nakamichi CD1 > Tascam DR-100mkII > wav 24/176.4; Lineage: wav 24/176.4 > Adobe Audition CC > iZotope RX5 Advanced > iZotope Ozone 5 Advanced > iZotope RX5 Advanced wav 24/96 > CD Wave >TLH > Flac 24; transferred, edited and mastered SIRMick April 2017 
  Archive
Source Information - Download Text | Download Zip
Grateful Dead
Rainbow Theatre,
London, England
10/06/1981


Source: Audience recording > Sony ECM-99 > JVC CD-1635 > Master Cassettes (C90 Maxell UD XLII x 3)
              Taped by Peter Williams from middle of stalls about 1/3 back from front of stage
Transfer: Cassette > Nakamichi CD1 > Tascam DR-100mkII > wav 24/176.4
Lineage: wav 24/176.4 > Adobe Audition CC > iZotope RX5 Advanced > iZotope Ozone 5 Advanced >
                iZotope RX5 Advanced wav 24/96 > CD Wave >TLH > Flac 24


Set I

01   tuning
02   Shakedown Street >
03   Minglewood Blues >
04   It Must Have Been The Roses
05   Little Red Rooster
06   Althea
07    //Me And My Uncle >
08   Mexicali Blues
09   Good Time Blues (aka Never Trust A Woman)
10   Cumberland Blues
11   Looks Like Rain
12   Might As Well


Set II

01   crowd/tuning
02   Man Smart (Woman Smarter)
03   crowd
04   High Time
05   crowd
06   Estimated Prophet >
07   He's Gone >
08   Drums >
09   Space (includes Blues For Allah Jam) >
10   The Wheel >
11   Sugar Magnolia >
12   Stella Blue >
13   Good Lovin'
14   encore break/tuning

encore

15   Sunshine Daydream >
16   Brokedown Palace



Comments:

Peter is not and never was a taper, he borrowed the tape recorder and microphone so that he could record this as a memory of the night.  However, all things considered he made a pretty good job of it.

This is the first time that this complete show has circulated as an aud and a very good one it is too.



Notes:

- All tracks have been pitch corrected
- The following patches have been put in using shnid 126571 (recorded by Richie Stankiewicz and edited by Andrew F.

   all of track 1 for Set II
   all of "Man Smart (Woman Smarter)"
   the first 21 seconds of track 3 Set II
   "He's Gone"  -  9:10-9:47
   "Sugar Magnolia" - 0:04-0:32

- I made a few level adjustments.
- The Start of "Me And My Uncle" is clipped,  first 3 or 4 seconds missing.


Thanks to Richie Stankiewicz and Andrew F for the patch source


Thanks to Peter for lending me his masters

transferred, edited and mastered
SIRMick
April 2017


shntool output:

    length     expanded size    cdr  WAVE problems  fmt   ratio  filename
     0:52.093      30005804 B   cxx   --   ---xx   flac  0.6241  gd1981-10-06s1t01.flac
    11:59.413     414382124 B   cxx   --   ---xx   flac  0.6557  gd1981-10-06s1t02.flac
     7:30.933     259737644 B   cxx   --   ---xx   flac  0.6717  gd1981-10-06s1t03.flac
     6:31.213     225338924 B   cxx   --   ---xx   flac  0.6687  gd1981-10-06s1t04.flac
     8:19.933     287961644 B   cxx   --   ---xx   flac  0.6777  gd1981-10-06s1t05.flac
     8:26.680     291847724 B   cxx   --   ---xx   flac  0.6686  gd1981-10-06s1t06.flac
     2:52.307      99248684 B   cxx   --   ---xx   flac  0.6776  gd1981-10-06s1t07.flac
     4:57.827     171548204 B   cxx   --   ---xx   flac  0.6768  gd1981-10-06s1t08.flac
     7:19.893     253378604 B   cxx   --   ---xx   flac  0.6656  gd1981-10-06s1t09.flac
     4:58.360     171855404 B   cxx   --   ---xx   flac  0.6746  gd1981-10-06s1t10.flac
     9:23.320     324472364 B   cxx   --   ---xx   flac  0.6539  gd1981-10-06s1t11.flac
     4:36.960     159529004 B   cxx   --   ---xx   flac  0.6751  gd1981-10-06s1t12.flac
     0:34.867      20083244 B   cxx   --   ---xx   flac  0.5894  gd1981-10-06s2t01.flac
     5:12.280     179873324 B   cxx   --   ---xx   flac  0.6333  gd1981-10-06s2t02.flac
     1:33.920      54097964 B   cxx   --   ---xx   flac  0.6328  gd1981-10-06s2t03.flac
     8:41.267     300249644 B   cxx   --   ---xx   flac  0.6686  gd1981-10-06s2t04.flac
     1:12.373      41687084 B   cxx   --   ---xx   flac  0.6509  gd1981-10-06s2t05.flac
    13:54.293     480553004 B   cxx   --   ---xx   flac  0.6664  gd1981-10-06s2t06.flac
    14:40.400     507110444 B   cxx   --   ---xx   flac  0.6629  gd1981-10-06s2t07.flac
    10:20.827     357596204 B   cxx   --   ---xx   flac  0.6570  gd1981-10-06s2t08.flac
    11:10.520     386219564 B   cxx   --   ---xx   flac  0.6367  gd1981-10-06s2t09.flac
     7:23.440     255421484 B   cxx   --   ---xx   flac  0.6552  gd1981-10-06s2t10.flac
     4:58.427     171893804 B   cxx   --   ---xx   flac  0.6859  gd1981-10-06s2t11.flac
     9:57.960     344425004 B   cxx   --   ---xx   flac  0.6509  gd1981-10-06s2t12.flac
     8:30.413     293998124 B   cxx   --   ---xx   flac  0.6861  gd1981-10-06s2t13.flac
     1:55.293      66409004 B   cxx   --   ---xx   flac  0.6575  gd1981-10-06s2t14.flac
     2:36.107      89917484 B   cxx   --   ---xx   flac  0.6866  gd1981-10-06s2t15.flac
     7:12.440     249085484 B   cxx   --   ---xx   flac  0.6587  gd1981-10-06s2t16.flac
   187:43.760    6487926992 B                            0.6627  (28 files)


Show Checksums
flac-md5
f85fb2b804292f6e417d004993d17318 *gd1981-10-06s1t01.flac
9098afc3078f1507a582db52640637d9 *gd1981-10-06s1t02.flac
6bd3dba7bdc02e774cda04ad28801485 *gd1981-10-06s1t03.flac
a59492c99693f23a7368a43e48ae0a3f *gd1981-10-06s1t04.flac
72c2497815b3adc31b011b5eff5a7ca5 *gd1981-10-06s1t05.flac
075f311aac22a0209751a6d2d545a886 *gd1981-10-06s1t06.flac
534747bf0ef1785108d047d0b5e40582 *gd1981-10-06s1t07.flac
fb6156c9fb431b4283a0d1518f52ae9e *gd1981-10-06s1t08.flac
495360398a75c2f2a988208dba240ab3 *gd1981-10-06s1t09.flac
cfad1273e994b4a9f24eee6535ecfede *gd1981-10-06s1t10.flac
515be5ed49fb5302cee31af1d11dd38e *gd1981-10-06s1t11.flac
522ccf3c9c1f339bc0aca7cb4a61aaba *gd1981-10-06s1t12.flac
2646ab2aa6a67eb66e692307d0dd13f8 *gd1981-10-06s2t01.flac
c60cb734a283fbd1faabf7d912dc93b0 *gd1981-10-06s2t02.flac
d7faeee2d3af383f209c2b3d6a11f1c6 *gd1981-10-06s2t03.flac
e943943f1539d08636c2f87d728b4ac5 *gd1981-10-06s2t04.flac
c83023ddadc0788abd21a6cc0cddfa23 *gd1981-10-06s2t05.flac
2a301b329fdf79cac431f69f1824b561 *gd1981-10-06s2t06.flac
6a7b58384d13b8ffaed2859e85d01d63 *gd1981-10-06s2t07.flac
354968d6cfa6d2c376a453c8350d0f37 *gd1981-10-06s2t08.flac
ba45e1de7dedbc90db69d2055a09c4e0 *gd1981-10-06s2t09.flac
a4355ab3fdf7d86e864390a63c2448af *gd1981-10-06s2t10.flac
7a9682a1e295d685b962cc412e3ee3c7 *gd1981-10-06s2t11.flac
92cdeea5778c4667a0b22e3d92d8436a *gd1981-10-06s2t12.flac
a148ab86b55c1c1a2e83b5409d5786d3 *gd1981-10-06s2t13.flac
0382f8b0c62f84a02087aba8271492ba *gd1981-10-06s2t14.flac
e3eeec08041a3943a72a2d059ea59e99 *gd1981-10-06s2t15.flac
97717f441ba09a30d3a1a95d104882b8 *gd1981-10-06s2t16.flac
ffp
gd1981-10-06s1t01.flac:e4d10f040a5951abe06e4e93f31d2e05
gd1981-10-06s1t02.flac:359bd806e8662846ea7213100f8bd626
gd1981-10-06s1t03.flac:536cc81727768077ce5f08dfcc889395
gd1981-10-06s1t04.flac:53ff98eece1d97ee4e63fb35b6170d52
gd1981-10-06s1t05.flac:e1ba76888be1fe0f92b44a75b89bcf73
gd1981-10-06s1t06.flac:bc83d9ac3a63a78aab3ae1c9466dd711
gd1981-10-06s1t07.flac:f069ff9084cc62cd85c0458760f178ab
gd1981-10-06s1t08.flac:cb082a69fa02303dd551e36a8a7dc68f
gd1981-10-06s1t09.flac:63025bf372c853bbd39803d74102ab66
gd1981-10-06s1t10.flac:e7058dc6e3f412776dbc6716afdfd645
gd1981-10-06s1t11.flac:85afa805135a0ca04b4411114e906e09
gd1981-10-06s1t12.flac:51e806f2c1f07d1221e4d86e4d5e18ed
gd1981-10-06s2t01.flac:416a312c9134e4107abbbd3de3ba1386
gd1981-10-06s2t02.flac:5afacebbc4c028678e89685a48c524e1
gd1981-10-06s2t03.flac:35a4372760890333518b2b482d8911b7
gd1981-10-06s2t04.flac:7fa8da5e528f4c012cb42e1243d3d11c
gd1981-10-06s2t05.flac:5a74094afcd6533ecab06b936bf0ae5a
gd1981-10-06s2t06.flac:62f5c302410e8a1b036becd1d6e91fae
gd1981-10-06s2t07.flac:a8d0bae43b19681e6da90638785ca498
gd1981-10-06s2t08.flac:6cff807f58f2b091c0f2b38b793d1957
gd1981-10-06s2t09.flac:dbc231c692aea6d8d0012b7357464d6c
gd1981-10-06s2t10.flac:8ebe169f0b6d84841cfa16939d16681f
gd1981-10-06s2t11.flac:60b73011c3f4ea895edb92c8041cca90
gd1981-10-06s2t12.flac:e7c68961591827592e67e767d83fca94
gd1981-10-06s2t13.flac:3a58c0ffcc3ef5402b507243d0488cfc
gd1981-10-06s2t14.flac:0089cce2d00072303fffe37bb4fa53ad
gd1981-10-06s2t15.flac:7275033bb88e0c800cc2cade3d20b855
gd1981-10-06s2t16.flac:526e2851abdc5516c0538466158b5710

Comments
Add Comment
Other Sources (comments)
Master Soundboard Cassette... (4) flac16; Recording... (1) flac24; AUD 2nd Set... (0) flac16; AUD 2nd Set... (1) flac16; Recording... (0) flac16; Soundboard;... (0) flac16; Audience... (0) flac/176.4kHz;... (0)
Date User Comment
04/29/2017 Wharfrat73 Updated info file.