Browse Collections Artists Sources   Search Dates

Add Show    List Management    Help


Grateful Dead 09/12/87
Capital Centre, Landover, MD
Comments Add Comment    Source Collectors    Add to Collection    Add to Want List    History
Source # 138218 Other Sources
Entered by Matt Vernon
Checksums flac-md5 , ffp
Disc Counts 0 / 0
Media Size Compressed: 969 MB (1016070144 bytes)
Uncompressed: 1.42 GB (1519369404 bytes)
Date Circulated
Date Added
04/30/2017
04/30/2017
Source Summary flac16; (original shnid = 31018) Healy SBD Ultramix Patch > Sony D5 > MSC(Maxell MX90 Type IV Cassettes); Transfer and encoding by Chris Ladner. - pitch correction and patches by Kevin Tobin 
  Archive
Source Information - Download Text | Download Zip
Grateful Dead
Captial Centre
Landover, MD
September 12, 1987

Patched and pitch corrected soundboard

Set 1:
d1t01 - Hell In A Bucket
d1t02 - Loser
d1t03 - Me & My Uncle
d1t04 - Big River
d1t05 - Ramble On Rose
d1t06 - Just Like Tom Thumb's Blues
d1t07 - Hey Pocky Way
d1t08 - Cassidy
d1t09 - Might As Well

Set 2:
d2t01 - Cumberland Blues
d2t02 - Samson & Delilah
d2t03 - Ship Of Fools
d2t04 - Man Smart (Woman Smarter)
d2t05 - Drums
d3t01 - Space
d3t02 - Truckin'
d3t03 - I Need A Miracle
d3t04 - Morning Dew
d3t05 - Turn On Your Love Light

Encore:
d3t06 - One More Saturday Night
d3t07 - Black Muddy River

Jerry Garcia - Guitar
Bob Weir - Guitar
Brent Mydland - Keyboards
Phil Lesh - Bass
Bill Kreutzmann - Drums
Mickey Hart - Drums

Audio Information:
Original  SBD (shnid = 31018)

Source:       Healy SBD Ultramix Patch > Sony D5 > MSC(Maxell MX90 Type IV Cassettes).
Transfer:   MSC playback on Nakamichi DR2 > gold connector shielded 3ft RCA monster cable > Audiophile 2496 soundcard /P4 2 GHz > recorded as 24 bit/48 KHz WAV using Wavelab 5.
Mastering:  Wavelab 5.0 (24/48 files rendered to 16 bit/44.1 KHz using Waves L3 Multimaximizer with hi resolution CD rendering settings (threshold -2 dB / ceiling -0.1 dB / type I dither / ultra shaping) > tracking with CDWAV 1.9 > 16 bit FLAC.
Transfer and encoding by Chris Ladner.

SBD was patched with:
AUD (shnid = 108280)

Schoeps > Sony D5 master cassettes
Supplied by VernB, Taped by ScottF.
Nak Dr-1 > Lynx2 Studio Interface at 32 bit float 88.2 kHz.

Edited and Mastered by Jamie Waddell on the **GEMS** Edit Station
Weiss-Saracon for SRC and Pow-r3 Dither to 16 bit 44.1 kHz
MetaData with Tag and Rename TLH for FLAC Level 8  SBE FREE
a **GEMS** Production June 2010

---------------------------------------------------------
- Mixed by [email protected]
- FLAC conversion 30-APR-2017 - Trader Little Helper
- Tagged 30-APR-2017 - Tag&Rename
---------------------------------------------------------
Only minor patching needed mostly during drums.
Speedwise the audience was a bit fast when compared to other recordings - .500 seconds per minute.

Brokedown House Production

    length     expanded size    cdr  WAVE problems  fmt   ratio  filename
     6:53.12       72881468 B   ---   --   -----    wav  1.0000  gd1987-09-12d1t01.wav
     9:07.63       96639020 B   ---   --   -----    wav  1.0000  gd1987-09-12d1t02.wav
     2:46.40       29376524 B   ---   --   -----    wav  1.0000  gd1987-09-12d1t03.wav
     5:27.68       57842780 B   ---   --   -----    wav  1.0000  gd1987-09-12d1t04.wav
     9:04.06       95975756 B   ---   --   -----    wav  1.0000  gd1987-09-12d1t05.wav
     5:33.38       58830620 B   ---   --   -----    wav  1.0000  gd1987-09-12d1t06.wav
     6:04.66       64364876 B   ---   --   -----    wav  1.0000  gd1987-09-12d1t07.wav
     6:38.02       70211948 B   ---   --   -----    wav  1.0000  gd1987-09-12d1t08.wav
     4:37.58       48999260 B   ---   --   -----    wav  1.0000  gd1987-09-12d1t09.wav
     5:02.71       53439836 B   ---   --   -----    wav  1.0000  gd1987-09-12d2t01.wav
     6:54.70       73194284 B   ---   --   -----    wav  1.0000  gd1987-09-12d2t02.wav
     8:10.23       86490140 B   ---   --   -----    wav  1.0000  gd1987-09-12d2t03.wav
     7:37.62       80760668 B   ---   --   -----    wav  1.0000  gd1987-09-12d2t04.wav
     8:28.06       89625356 B   ---   --   -----    wav  1.0000  gd1987-09-12d2t05.wav
    10:15.40      108580124 B   ---   --   -----    wav  1.0000  gd1987-09-12d3t01.wav
     6:12.07       65637308 B   ---   --   -----    wav  1.0000  gd1987-09-12d3t02.wav
     3:25.49       36277292 B   ---   --   -----    wav  1.0000  gd1987-09-12d3t03.wav
    11:34.73      122593340 B   ---   --   -----    wav  1.0000  gd1987-09-12d3t04.wav
     8:17.40       87764924 B   ---   --   -----    wav  1.0000  gd1987-09-12d3t05.wav
     4:43.47       50031788 B   ---   --   -----    wav  1.0000  gd1987-09-12d3t06.wav
     6:35.74       69852092 B   ---   --   -----    wav  1.0000  gd1987-09-12d3t07.wav
   143:33.15     1519369404 B                            1.0000  (21 files)



Show Checksums
flac-md5
bb0ba7083bc58fe8bc4a88bd3538fc7d *gd1987-09-12d1t01.flac
49b7bec4db71d7641c96d734840fb7f0 *gd1987-09-12d1t02.flac
2c11959796b2d8f0b9a427d0ae9cbcc2 *gd1987-09-12d1t03.flac
e629e1df9fe8cfbdf32cdb5e17846d90 *gd1987-09-12d1t04.flac
ced617ad4e3f0dbfbc668cb2973f0def *gd1987-09-12d1t05.flac
9f3b5ddb5a807e5fd057964efe754567 *gd1987-09-12d1t06.flac
c546e1c827782996e69d156ee9934619 *gd1987-09-12d1t07.flac
3723b8218dbccb808a79560725da130c *gd1987-09-12d1t08.flac
36daac4a31b75429504b6fd3834314c1 *gd1987-09-12d1t09.flac
9e61c026fdb9d2401b46d7fbacbe0f66 *gd1987-09-12d2t01.flac
57a38a550da3c0bdd251e97d4b2bf0c4 *gd1987-09-12d2t02.flac
e0b147dea5c9327c3766c1f3c63ac101 *gd1987-09-12d2t03.flac
0430bd02de1c98e8ce1f73ae97068f9f *gd1987-09-12d2t04.flac
41ac98bc1bcd621f16b6f38e7676de13 *gd1987-09-12d2t05.flac
236a7df167802f0cd0a490e5fc77760e *gd1987-09-12d3t01.flac
f99b6b4aa2c7bf1baaa90e3fa115a8aa *gd1987-09-12d3t02.flac
b8c056e0a3f163997098c0ca422fee78 *gd1987-09-12d3t03.flac
fdc08dad48004676f6c6ffac641823f1 *gd1987-09-12d3t04.flac
9935ccf6f2382b6fe02b3a839df5cca3 *gd1987-09-12d3t05.flac
2c07f30211085a0d17c2f858322521b0 *gd1987-09-12d3t06.flac
72e2928c752b59ba6405af6c4f52a8b0 *gd1987-09-12d3t07.flac
ffp
gd1987-09-12d1t01.flac:d324edb5fbff96e6c68fa94752d6a0a0
gd1987-09-12d1t02.flac:23202953daf4ff1363744ed691621184
gd1987-09-12d1t03.flac:a19181a4acdf016c378285e6a94c304f
gd1987-09-12d1t04.flac:14b2c3c3f3b9d6e56a182a3444a52b87
gd1987-09-12d1t05.flac:b0d92a9c9687799839ea140f8f76d207
gd1987-09-12d1t06.flac:be1b372e3bd59bc2264ce142115f4759
gd1987-09-12d1t07.flac:356b90f99f489d19d65e785426991a09
gd1987-09-12d1t08.flac:20f74da5375408988aefec46167a4f73
gd1987-09-12d1t09.flac:6b310d3180f3aea2ec679f21b21538af
gd1987-09-12d2t01.flac:cabb4e3f74418ab7fe0006d242e04981
gd1987-09-12d2t02.flac:c41c3de2b5321cf16ebc00c529c131e5
gd1987-09-12d2t03.flac:ab8563bc80ac390c2fd5286265653feb
gd1987-09-12d2t04.flac:9d1c0a6a9acd9535f7e09d234ef469db
gd1987-09-12d2t05.flac:7c1878d864007f19c34ee036b4cab184
gd1987-09-12d3t01.flac:ec8678d2fb261797fefb67e41fa4d432
gd1987-09-12d3t02.flac:1bb58a58bb3fb79607e6aeb09eba6baf
gd1987-09-12d3t03.flac:f51cd39243599d04073ccfcdaae6f7ea
gd1987-09-12d3t04.flac:8658104a0e4797b99a299a297db72b9b
gd1987-09-12d3t05.flac:1c920f22468baa6e38e76a47e2476e00
gd1987-09-12d3t06.flac:0988928677635dc63843bab514f205fa
gd1987-09-12d3t07.flac:f6cbc0df1d2670734b4da801756edc0c

Comments
Add Comment
Other Sources (comments)
CSBD?> DAT?; via chill and... (1) FOB Schoeps> pcm> dat> cdr>... (1) Source: SBD > ? (C1 or... (0) Healy SBD Ultramix Patch >... (0) flac16; Schoeps >... (0) flac16; Master:... (0) flac16; Matrix 2... (0) DTS-Audio-CD 5.1... (0) flac16/48kHz; 5.1... (0)
Date User Comment