Browse Collections Artists Sources   Search Dates

Add Show    List Management    Help


Grateful Dead 04/16/83
Meadowlands Arena, East Rutherford, NJ
Comments Add Comment    Source Collectors    Add to Collection    Add to Want List    History
Source # 138225 Other Sources
Entered by Matt Vernon
Checksums ffp , flac-md5
Disc Counts 0 / 0
Media Size Compressed: 0.98 GB (1051904299 bytes)
Uncompressed: 1.58 GB (1700365344 bytes)
Date Circulated
Date Added
02/05/2017
05/02/2017
Source Summary flac16; 2 source matrix by Dusborne; Soundboard (shnid:28294),Recording Info: Set 1: SBD -> Cassette Master -> Reel -> Dat -> CD -> EAC -> WAV -> FLAC; Set 2: SBD -> PCM -> Dat -> Cool Edit Pro -> FLAC -> WAV, Transfer Info: WAV -> Samplitude v7.02 Professional -> FLAC; Audience (shnid:117477), Recorded by The Weasel - "Da Weez" Transferred and mastered to .wav files by D5scott, Source: 2 Sennheiser 421 microphones > Sony TC-D5M - master analog cassettes, Transfer: Sony TC-D5M (original record deck) > Pre Sonus Inspire GT > Sound Forge > .wav files > Trader's Little Helper > flac files 
  Archive
Source Information - Download Text | Download Zip
Grateful Dead
April 16, 1983
Brendan Byrne Arena
East Rutherford , NJ

2 Source Matrix

Soundboard (shnid:28294)
--------------------------------------------------------------------------------
gd83-04-16.sbd.miller.28294.sbeok.flac

Recording Info:
Set 1: SBD -> Cassette Master -> Reel -> Dat -> CD -> EAC -> WAV -> FLAC
Set 2: SBD -> PCM -> Dat -> Cool Edit Pro -> FLAC -> WAV

Transfer Info:
WAV -> Samplitude v7.02 Professional -> FLAC
(3 Discs Audio / 2 Discs FLAC)

Transferred and Edited By Charlie Miller
[email protected]
2/23/05

Notes:
-- I did some work on the levels and cleaned up some flaws.
-- Seamless transition between discs 2 and 3.
-- Thanks to Darryl Hinko for the Set 1 upgrade.

Audience (shnid:117477)
-------------------------------------------------------------------------------
gd1983-04-16.117477.daweez.d5scott.Sennheiser421.flac16

Recorded by The Weasel - "Da Weez"
Transferred and mastered to .wav files by D5scott
Source: 2 Sennheiser 421 microphones > Sony TC-D5M - master analog cassettes
Transfer: Sony TC-D5M (original record deck) > Pre Sonus Inspire GT > Sound Forge >
.wav files > Trader's Little Helper > flac files

--------------------------------------------------------------------------------
---Thank you Charlie Miller for your work on the SBD.
---Thank you Darryl Hinko for the Set 1 SBD upgrade.
---Thank you The Weasel - "Da Weez" for recording the show.
---Thank you D5scott for your work on the AUD.
---Thank you Germain for your advice, encouragement, guidance and seeding.

Matrix by dusborne

05-02-2017
------------------------------------------------------------------------------
Set 1

101 - gd83-04-16s1t01 - Tuning
102 - gd83-04-16s1t02 - New Minglewood Blues
103 - gd83-04-16s1t03 - Tennessee Jed
104 - gd83-04-16s1t04 - Me & My Uncle ->
105 - gd83-04-16s1t05 - Mexicali Blues
106 - gd83-04-16s1t06 - Bird Song
107 - gd83-04-16s1t07 - My Brother Esau
108 - gd83-04-16s1t08 - West L.A. Fadeaway
109 - gd83-04-16s1t09 - Maybe You Know
110 - gd83-04-16s1t10 - Looks Like Rain
111 - gd83-04-16s1t11 - Touch of Grey

Set 2

201 - gd83-04-16s2t01 - Tuning
202 - gd83-04-16s2t02 - China Cat Sunflower ->
203 - gd83-04-16s2t03 - I Know You Rider
204 - gd83-04-16s2t04 - Uncle John's Band ->
205 - gd83-04-16s2t05 - Truckin' ->
206 - gd83-04-16s2t06 - Drums ->
207 - gd83-04-16s2t07 - Black Queen* ->
208 - gd83-04-16s2t08 - Iko Iko* ->
209 - gd83-04-16s2t09 - Little "Bob" Star ->
210 - gd83-04-16s2t10 - The Other One ->
211 - gd83-04-16s2t11 - Black Peter* ->
212 - gd83-04-16s2t12 - One More Saturday Night*

Encore
213 - gd83-04-16s2t13 - Johnny B. Goode*

* with Stephen Stills
-------------------------------------------------------------------------------------
Tagging notes:
Show information is embedded within the header of each flac file.
It will display on any player capable of directly playing flac files.
If converted to wav during processing, all tags will be stripped,
however audio data will remain unaffected.
If you must transcode to a lossy format, do so directly Flac > Lossy.
Use ffp to validate audio integrity.
Md5 values will change if tagging is altered.

Dave Usborne 05-02-2017
-------------------------------------------------------------------------------------
    length     expanded size    cdr  WAVE problems  fmt   ratio  filename
     0:53.29        9417452 B   ---   --   ---xx   flac  0.4072  gd83-04-16s1t01.flac
     8:47.49       93078092 B   ---   --   ---xx   flac  0.6135  gd83-04-16s1t02.flac
     9:42.41      102761276 B   ---   --   ---xx   flac  0.5786  gd83-04-16s1t03.flac
     3:29.64       37018172 B   ---   --   ---xx   flac  0.6152  gd83-04-16s1t04.flac
     6:47.29       71863052 B   ---   --   ---xx   flac  0.5688  gd83-04-16s1t05.flac
    10:53.29      115257452 B   ---   --   ---xx   flac  0.6169  gd83-04-16s1t06.flac
     7:02.63       74589020 B   ---   --   ---xx   flac  0.5915  gd83-04-16s1t07.flac
     8:26.05       89270204 B   ---   --   ---xx   flac  0.6074  gd83-04-16s1t08.flac
     4:58.24       52623692 B   ---   --   ---xx   flac  0.6302  gd83-04-16s1t09.flac
     8:30.11       89989916 B   ---   --   ---xx   flac  0.6011  gd83-04-16s1t10.flac
     6:13.00       65797244 B   ---   --   ---xx   flac  0.6297  gd83-04-16s1t11.flac
     0:34.51        6117596 B   ---   --   ---xx   flac  0.4355  gd83-04-16s2t01.flac
     7:21.07       77808908 B   ---   --   ---xx   flac  0.6629  gd83-04-16s2t02.flac
     6:16.14       66359372 B   ---   --   ---xx   flac  0.6162  gd83-04-16s2t03.flac
    10:22.04      109730252 B   ---   --   ---xx   flac  0.6554  gd83-04-16s2t04.flac
    12:16.19      129875132 B   ---   --   ---xx   flac  0.6488  gd83-04-16s2t05.flac
     7:15.33       76811660 B   ---   --   ---xx   flac  0.5319  gd83-04-16s2t06.flac
     8:34.73       90841340 B   ---   --   ---xx   flac  0.6332  gd83-04-16s2t07.flac
     6:54.45       73135484 B   ---   --   ---xx   flac  0.6693  gd83-04-16s2t08.flac
     1:51.14       19613372 B   ---   --   ---xx   flac  0.6162  gd83-04-16s2t09.flac
     6:14.38       66063020 B   ---   --   ---xx   flac  0.6456  gd83-04-16s2t10.flac
     8:20.03       88207100 B   ---   --   ---xx   flac  0.6049  gd83-04-16s2t11.flac
     4:55.73       52209740 B   ---   --   ---xx   flac  0.6694  gd83-04-16s2t12.flac
     3:57.51       41926796 B   ---   --   ---xx   flac  0.6687  gd83-04-16s2t13.flac
   160:39.19     1700365344 B                            0.6186  (24 files)


Show Checksums
ffp
gd83-04-16s1t01.flac:5b6b0ef83b3daca325014a6d7e994b95
gd83-04-16s1t02.flac:e467b0b76b2f8c0e4d30005818ebe3d8
gd83-04-16s1t03.flac:927278f77caaa3d1bd8daa1c8e3fbc3a
gd83-04-16s1t04.flac:27674302d5d6e24beda41e3c07b5269d
gd83-04-16s1t05.flac:6df09d0ca089ce13fdd1595188732647
gd83-04-16s1t06.flac:e92fd236d3f29e8a78609fa3be8cc8a7
gd83-04-16s1t07.flac:7fd7e3081ef1aa9f65f8281dc01ef69b
gd83-04-16s1t08.flac:0b87caad7a4f43f3b717a5a1e77f74a4
gd83-04-16s1t09.flac:04a62b77c828b9c6b79dbe7c3546ed90
gd83-04-16s1t10.flac:1f28243adf8bbb72bab35ff2b1d38b3b
gd83-04-16s1t11.flac:6f31bd3d387f4fe85262cb8d80561ca1
gd83-04-16s2t01.flac:e1ac69f02e33364f1a867819cab253c6
gd83-04-16s2t02.flac:9e9c05f246c032cff0738a3dbf16f685
gd83-04-16s2t03.flac:175446d133eb776b85bef773b6d403e9
gd83-04-16s2t04.flac:dcb0995b7029ee30b3e8bee8717318ff
gd83-04-16s2t05.flac:a42b9c26e1a96034190a6624ea4b9df9
gd83-04-16s2t06.flac:8146c54df7d744f37c1f541ace78ad0a
gd83-04-16s2t07.flac:b80f1770b62a3584234e9b81a333c460
gd83-04-16s2t08.flac:04b78ca15e2ba1b0c293463c68dbdc46
gd83-04-16s2t09.flac:30f5ec730cd4e9dff9db31ff077329d4
gd83-04-16s2t10.flac:c38098d20ed29846e48ed6a898226181
gd83-04-16s2t11.flac:063e48ace7beba497aa5991bbcfc5ea6
gd83-04-16s2t12.flac:8a2d5a3e015204a6ced65cd2e11d942f
gd83-04-16s2t13.flac:264027ae1e3886fd1af8654b397a4d17
flac-md5
d0771fea72074de8165d63ece749e058 *gd83-04-16s1t01.flac
ebac857f7b6d09d0983845f8c4028fd7 *gd83-04-16s1t02.flac
40bc0588be785df4f1e60762d9fd7ad5 *gd83-04-16s1t03.flac
5c913f808b3ab3c24996049d402df28a *gd83-04-16s1t04.flac
b788848f57934020496231140e4d14dc *gd83-04-16s1t05.flac
e31239a4c715dab46aa6cd9b6e253e34 *gd83-04-16s1t06.flac
368ef8e98dbf54e084d23854f20ab358 *gd83-04-16s1t07.flac
1b29c5eebacb811ee35e936fff979040 *gd83-04-16s1t08.flac
1f33a9e4014c1c5798217f98d1ed542e *gd83-04-16s1t09.flac
cad8e20c0ef76c341680a3f45fe9d4d2 *gd83-04-16s1t10.flac
6ff9c34f1e71a440e402e0b92633457d *gd83-04-16s1t11.flac
b837d56e201061b2535dc3b2549699a0 *gd83-04-16s2t01.flac
856a68762dc1b77a8de32d4444352431 *gd83-04-16s2t02.flac
949e3110108b8005c1242f4ea721577a *gd83-04-16s2t03.flac
4c2a6b3d49e9ba6b56d2cd8121ab5791 *gd83-04-16s2t04.flac
bc892fd8301ea82f19fe15cb0c799c46 *gd83-04-16s2t05.flac
056b75d1d4ddb42ec903b2ab7a3f9717 *gd83-04-16s2t06.flac
059461426e90c1a04ce5295e8e2db8c8 *gd83-04-16s2t07.flac
b6a83ea7fd0d1b7794542ff95c656874 *gd83-04-16s2t08.flac
67322146e188289371fa878153e74416 *gd83-04-16s2t09.flac
eb47f747b824050b4d5c5b4127f47bdc *gd83-04-16s2t10.flac
655132ae0c6cbd3c4ba8e23cbf206c54 *gd83-04-16s2t11.flac
e243d0434b5b1f166d05d3796a863434 *gd83-04-16s2t12.flac
3cca582a6e61a545dbb0fc25536317a8 *gd83-04-16s2t13.flac

Comments
Add Comment
Other Sources (comments)
AudMC > DAT > CDWAV > SHN;... (0) S : MC > DAT > CDR > EAC >... (6) (FOB) Beyer M160 -> Sony D5... (1) flac16; mixed... (0) Set 2 Only: Source:... (0) flac16; Source: 2... (0) flac24; Updated... (0) flac16; (FOB)... (0) flac16; Soundboard... (0) flac24; Set 2... (0) flac16; Set 2... (0) flac16; source: aud... (0) flac24; source: aud... (0) flac1648; Master... (0) flac16; Partial Set... (2) flac16/44.1 First... (0) flac24/48 First... (0) flac24; Set 2... (0)
Date User Comment