Browse Collections Artists Sources   Search Dates

Add Show    List Management    Help


Grateful Dead 10/06/81
Rainbow Theater, London, England
Comments Add Comment    Source Collectors    Add to Collection    Add to Want List    History
Source # 138249 Other Sources
Entered by Matt Vernon
Checksums flac-md5 , ffp
Disc Counts 0 / 0
Media Size
Date Circulated
Date Added
05/07/2017
05/07/2017
Source Summary flac/176.4kHz; Source: Audience recording > Sony ECM-99 > JVC CD-1635 > aster Cassettes (C90 Maxell UD XLII x 3); Taped by Peter Williams from middle of stalls about 1/3 back from front of stage; Transfer: Cassette > Nakamichi CD1 > Tascam DR-100mkII > wav 24/176.4; Lineage: wav 24/176.4 > Adobe Audition CC > iZotope RX5 Advanced > iZotope Ozone 5 Advanced > CD Wave >TLH > Flac 24 
  Archive
Source Information - Download Text | Download Zip
Grateful Dead
Rainbow Theatre,
London, England
10/06/1981


Source: Audience recording > Sony ECM-99 > JVC CD-1635 > Master Cassettes (C90 Maxell UD XLII x 3)
              Taped by Peter Williams from middle of stalls about 1/3 back from front of stage
Transfer: Cassette > Nakamichi CD1 > Tascam DR-100mkII > wav 24/176.4
Lineage: wav 24/176.4 > Adobe Audition CC > iZotope RX5 Advanced > iZotope Ozone 5 Advanced >
                CD Wave >TLH > Flac 24


Set I

01   tuning
02   Shakedown Street >
03   Minglewood Blues >
04   It Must Have Been The Roses
05   Little Red Rooster
06   Althea
07    //Me And My Uncle >
08   Mexicali Blues
09   Good Time Blues (aka Never Trust A Woman)
10   Cumberland Blues
11   Looks Like Rain
12   Might As Well


Set II

01   crowd/tuning
02   Man Smart (Woman Smarter)
03   crowd
04   High Time
05   crowd
06   Estimated Prophet >
07   He's Gone >
08   Drums >
09   Space (includes Blues For Allah Jam) >
10   The Wheel >
11   Sugar Magnolia >
12   Stella Blue >
13   Good Lovin'
14   encore break/tuning

encore

15   Sunshine Daydream >
16   Brokedown Palace



Comments:

Peter is not and never was a taper, he borrowed the tape recorder and microphone so that he could record this as a memory of the night.  However, all things considered he made a pretty good job of it.

This is the first time that this complete show has circulated as an aud and a very good one it is too.



Notes:

- All tracks have been pitch corrected
- The following patches have been put in using shnid 126571 (recorded by Richie Stankiewicz and edited by Andrew F.

   all of track 1 for Set II
   all of "Man Smart (Woman Smarter)"
   the first 21 seconds of track 3 Set II
   "He's Gone"  -  9:10-9:47
   "Sugar Magnolia" - 0:04-0:32

- I made a few level adjustments.
- The Start of "Me And My Uncle" is clipped,  first 3 or 4 seconds missing.


Thanks to Richie Stankiewicz and Andrew F for the patch source


Thanks to Peter for lending me his masters

transferred, edited and mastered
SIRMick
April 2017


shntool output:

    length     expanded size    cdr  WAVE problems  fmt   ratio  filename
     0:52.093      55135628 B   cxx   --   ---xx   flac  0.5774  gd1981-10-06s1t01.flac
    11:59.413     761427116 B   cxx   --   ---xx   flac  0.5989  gd1981-10-06s1t02.flac
     7:30.933     477267884 B   cxx   --   ---xx   flac  0.6081  gd1981-10-06s1t03.flac
     6:31.213     414060236 B   cxx   --   ---xx   flac  0.6070  gd1981-10-06s1t04.flac
     8:19.933     529129484 B   cxx   --   ---xx   flac  0.6139  gd1981-10-06s1t05.flac
     8:26.680     536270156 B   cxx   --   ---xx   flac  0.6063  gd1981-10-06s1t06.flac
     2:52.307     182369420 B   cxx   --   ---xx   flac  0.6114  gd1981-10-06s1t07.flac
     4:57.827     315219788 B   cxx   --   ---xx   flac  0.6106  gd1981-10-06s1t08.flac
     7:19.893     465583148 B   cxx   --   ---xx   flac  0.6023  gd1981-10-06s1t09.flac
     4:58.360     315784268 B   cxx   --   ---xx   flac  0.6076  gd1981-10-06s1t10.flac
     9:23.320     596217932 B   cxx   --   ---xx   flac  0.5947  gd1981-10-06s1t11.flac
     4:36.960     293134508 B   cxx   --   ---xx   flac  0.6082  gd1981-10-06s1t12.flac
     0:34.867      36902924 B   cxx   --   ---xx   flac  0.4824  gd1981-10-06s2t01.flac
     5:12.280     330517196 B   cxx   --   ---xx   flac  0.5344  gd1981-10-06s2t02.flac
     1:33.920      99404972 B   cxx   --   ---xx   flac  0.5715  gd1981-10-06s2t03.flac
     8:41.267     551708684 B   cxx   --   ---xx   flac  0.6064  gd1981-10-06s2t04.flac
     1:12.373      76599980 B   cxx   --   ---xx   flac  0.5945  gd1981-10-06s2t05.flac
    13:54.293     883016108 B   cxx   --   ---xx   flac  0.6029  gd1981-10-06s2t06.flac
    14:40.400     931815404 B   cxx   --   ---xx   flac  0.5989  gd1981-10-06s2t07.flac
    10:20.827     657082988 B   cxx   --   ---xx   flac  0.5952  gd1981-10-06s2t08.flac
    11:10.520     709678412 B   cxx   --   ---xx   flac  0.5870  gd1981-10-06s2t09.flac
     7:23.440     469336940 B   cxx   --   ---xx   flac  0.5953  gd1981-10-06s2t10.flac
     4:58.427     315854828 B   cxx   --   ---xx   flac  0.6151  gd1981-10-06s2t11.flac
     9:57.960     632880908 B   cxx   --   ---xx   flac  0.5967  gd1981-10-06s2t12.flac
     8:30.413     540221516 B   cxx   --   ---xx   flac  0.6182  gd1981-10-06s2t13.flac
     1:55.293     122026508 B   cxx   --   ---xx   flac  0.6005  gd1981-10-06s2t14.flac
     2:36.107     165223340 B   cxx   --   ---xx   flac  0.6187  gd1981-10-06s2t15.flac
     7:12.440     457694540 B   cxx   --   ---xx   flac  0.6012  gd1981-10-06s2t16.flac
   187:43.760   11921564816 B                            0.6001  (28 files)



Show Checksums
flac-md5
9a5aac33f2ed1f9859759d06517de26d *gd1981-10-06s1t01.flac
9a1f44db3c94c2c743e984214bbe6b4d *gd1981-10-06s1t02.flac
178715e10202224c804d5f0ce3e4d2ce *gd1981-10-06s1t03.flac
5a53cbd53c2cd3e4c376e43520fe78d2 *gd1981-10-06s1t04.flac
7c2c3516cd676408477f9c7537457175 *gd1981-10-06s1t05.flac
cb070000713ec864bac4e6e4dc044962 *gd1981-10-06s1t06.flac
952dd0b3585ff8c52d4de768e9ee2c4e *gd1981-10-06s1t07.flac
ce5d457e660bc37eb0599a345ffbf171 *gd1981-10-06s1t08.flac
812e5e882247857448400cb150907ec9 *gd1981-10-06s1t09.flac
acd9a41efb07f75c98c31aecb1f7852c *gd1981-10-06s1t10.flac
1d58c72de1e1a46b5a8f4d3fb6807ad2 *gd1981-10-06s1t11.flac
7465042d5cd7ced16e5b44b1e145daa4 *gd1981-10-06s1t12.flac
226ff35f10e10c498040a328fdc93348 *gd1981-10-06s2t01.flac
75c64d65e2d0bb9eeb2119833848e445 *gd1981-10-06s2t02.flac
3ebb60706bf08b0853567ce9976af6d9 *gd1981-10-06s2t03.flac
f32ef7c13693dcd8548c2c3145c2418f *gd1981-10-06s2t04.flac
940d3cbe9c0882c59a3d62022c9ca64b *gd1981-10-06s2t05.flac
865b52e12948caa64b87034fad09767e *gd1981-10-06s2t06.flac
33a96d27758dd832bbc132dc25e03b1a *gd1981-10-06s2t07.flac
13b250a90c107a2bcfecc57e12064588 *gd1981-10-06s2t08.flac
2619ae766355cb1455f4daf4ee077436 *gd1981-10-06s2t09.flac
80c95375df7a79760309a9ad8f9b5332 *gd1981-10-06s2t10.flac
b8aa102b2ea9a5ec916e75bb6a06f232 *gd1981-10-06s2t11.flac
4f3f9f2ad5204dde3164d62a9786970b *gd1981-10-06s2t12.flac
0a68a1f455b3b95db4efc11d2b7035bb *gd1981-10-06s2t13.flac
1bd6f02857fe325d3b701f8e5fa44deb *gd1981-10-06s2t14.flac
4f9831b41ff73d91c3f8a2ba3e4188c2 *gd1981-10-06s2t15.flac
feef1936452aad00859f9e269098b89f *gd1981-10-06s2t16.flac
ffp
gd1981-10-06s1t01.flac:3e565104d3086af8881881a0751dbfd9
gd1981-10-06s1t02.flac:a135db54b8848e5e5e0228ce4c50376e
gd1981-10-06s1t03.flac:5ff8f62a40aebf17df5f9ff37d9e02f3
gd1981-10-06s1t04.flac:e6554da8e2afd90db5bed9555ef581d6
gd1981-10-06s1t05.flac:dd996c9d1d8095d6937bfd7033df8ce0
gd1981-10-06s1t06.flac:ecb8a51233610bc2e97039a4b9db2320
gd1981-10-06s1t07.flac:4c910567c8504c5ed41bdf25f2af39d9
gd1981-10-06s1t08.flac:42458189d45340d9772c075fc19ae039
gd1981-10-06s1t09.flac:dd4863a5b4328b2eb039b7603cd22022
gd1981-10-06s1t10.flac:28c47312f4f3d28a3e6f0bab297260e9
gd1981-10-06s1t11.flac:e6f2208d6ab505ac180f989b21d06815
gd1981-10-06s1t12.flac:03b7db44bc1a83a8f38a22a88be103bd
gd1981-10-06s2t01.flac:7b0837de2ca1dcf9aa1f567af8c45502
gd1981-10-06s2t02.flac:dc381c63a4e100e0e193712282623dbe
gd1981-10-06s2t03.flac:b05a0868af4b41a6333e3e6b61f14fc0
gd1981-10-06s2t04.flac:1fe294b359d8800a48f658b6b56bf24f
gd1981-10-06s2t05.flac:5cba5eba83e91b997ff1ead8a0696af9
gd1981-10-06s2t06.flac:10da8b7c234cc0497cfc5a116b322a02
gd1981-10-06s2t07.flac:9e6fe0af0ab607c95e1f67cf54bcdf22
gd1981-10-06s2t08.flac:11e38737e5e7fcc802f82a8259e5b833
gd1981-10-06s2t09.flac:654994236f85f1309136fe6b9be279b7
gd1981-10-06s2t10.flac:7153bfa5f86e4768440c93873ae00237
gd1981-10-06s2t11.flac:89f04deb73d136ff12f2486dc3395992
gd1981-10-06s2t12.flac:39dfdd990165411a317c5a384e34daac
gd1981-10-06s2t13.flac:1021d462b0e8113206918cccb9c99783
gd1981-10-06s2t14.flac:1e5086426b48508a9e0cbe2015773992
gd1981-10-06s2t15.flac:1fac0bf8195541e2cee402bb836bc637
gd1981-10-06s2t16.flac:01dddc0d8ffb4f75304221d637735dcf

Comments
Add Comment
Other Sources (comments)
Master Soundboard Cassette... (4) flac16; Recording... (1) flac24; AUD 2nd Set... (0) flac16; AUD 2nd Set... (1) flac16; Recording... (0) flac16; Soundboard;... (0) flac16; Audience... (0) flac24; Audience... (1)
Date User Comment