Browse Collections Artists Sources   Search Dates

Add Show    List Management    Help


Grateful Dead 06/21/87
Greek Theatre, University Of California, Berkeley, CA
Comments Add Comment    Source Collectors    Add to Collection    Add to Want List    History
Source # 138261 Other Sources
Entered by Matt Vernon
Checksums ffp , flac-md5
Disc Counts 0 / 0
Media Size
Uncompressed: 1.6 GB (1713115668 bytes)
Date Circulated
Date Added
05/10/2017
05/10/2017
Source Summary flac16; Source: AKG 414 B/TL cardioids > ORTF > Oade PS > Sony PCM FI > dat (44.1); Taped by Robert Bryant and provided by Rich Gastwirt; Transfer: Dat > Sony PCM-R500 > Sound Devices 744T > wav 16/44.1; Transfer by Charlie Miller; Lineage: wav > iZotope RX6 Advanced > iZotope Ozone 5 Advanced > CD Wave > TLH > Flac 16; edited and mastered SIRMick May 2017 
  Archive
Source Information - Download Text | Download Zip
Grateful Dead
Greek Theatre
University of California
Berkeley, CA
06/21/1987


Source: AKG 414 B/TL cardioids >  ORTF > Oade PS > Sony PCM FI > dat (44.1)
              Taped by Robert Bryant and provided by Rich Gastwirt
Transfer: Dat > Sony PCM-R500 > Sound Devices 744T > wav 16/44.1
                 Transfer by Charlie Miller
Lineage: wav > iZotope RX6 Advanced > iZotope Ozone 5 Advanced > CD Wave > TLH > Flac 16



Set I

01   crowd/tuning
02   Alabama Getaway >
03   The Promised Land
04   crowd/tuning
05   West L.A. Fadeaway
06   crowd/tuning
07   Walkin' Blues
08   crowd/tuning
09   Far From Me
10   Cumberland Blues >
11   Mexicali Blues
12   crowd/tuning
13   Box Of Rain
14   Don't Ease Me In


Set II

01   crowd/tuning
02   Man Smart (Woman Smarter)
03   Crazy Fingers >
04   Saint Of Circumstance
05   China Doll >
06   Playing In The Band >
07   Drums >
08   Space >
09   When I Paint My Masterpiece >
10   Black Peter >
11   Throwing Stones >
12   Not Fade Away (and chant)

encore

13   Brokedown Palace



Notes:

- This is a new transfer of the source used in shnid 76379.


Thanks to all involved.


edited and mastered
SIRMick
May 2017


shntool output:

    length     expanded size    cdr  WAVE problems  fmt   ratio  filename
     3:42.59       39299612 B   ---   --   ---xx   flac  0.4269  gd1987-06-21s1t01.flac
     4:35.26       48571196 B   ---   --   ---xx   flac  0.5771  gd1987-06-21s1t02.flac
     4:21.01       46042796 B   ---   --   ---xx   flac  0.5917  gd1987-06-21s1t03.flac
     1:29.19       15744332 B   ---   --   ---xx   flac  0.4050  gd1987-06-21s1t04.flac
     6:59.49       74026892 B   ---   --   ---xx   flac  0.5640  gd1987-06-21s1t05.flac
     1:54.63       20257820 B   ---   --   ---xx   flac  0.3943  gd1987-06-21s1t06.flac
     6:02.47       63967388 B   ---   --   ---xx   flac  0.5678  gd1987-06-21s1t07.flac
     1:43.11       18195116 B   ---   --   ---xx   flac  0.3967  gd1987-06-21s1t08.flac
     5:27.23       57736940 B   ---   --   ---xx   flac  0.5357  gd1987-06-21s1t09.flac
     5:11.65       55013324 B   ---   --   ---xx   flac  0.5528  gd1987-06-21s1t10.flac
     5:07.37       54241868 B   ---   --   ---xx   flac  0.5826  gd1987-06-21s1t11.flac
     1:52.63       19905020 B   ---   --   ---xx   flac  0.4422  gd1987-06-21s1t12.flac
     5:06.23       54032540 B   ---   --   ---xx   flac  0.5560  gd1987-06-21s1t13.flac
     3:45.10       39713564 B   ---   --   ---xx   flac  0.5892  gd1987-06-21s1t14.flac
     1:06.21       11691836 B   ---   --   ---xx   flac  0.3903  gd1987-06-21s2t01.flac
     8:03.09       85222412 B   ---   --   ---xx   flac  0.5697  gd1987-06-21s2t02.flac
     8:30.23       90018140 B   ---   --   ---xx   flac  0.5378  gd1987-06-21s2t03.flac
     7:40.00       81144044 B   ---   --   ---xx   flac  0.5866  gd1987-06-21s2t04.flac
     6:29.51       68739596 B   ---   --   ---xx   flac  0.5112  gd1987-06-21s2t05.flac
     9:57.08      105329660 B   ---   --   ---xx   flac  0.5639  gd1987-06-21s2t06.flac
     8:51.46       93776636 B   ---   --   ---xx   flac  0.4808  gd1987-06-21s2t07.flac
    13:57.46      147755036 B   ---   --   ---xx   flac  0.4146  gd1987-06-21s2t08.flac
     4:06.72       43563788 B   ---   --   ---xx   flac  0.5672  gd1987-06-21s2t09.flac
     8:43.33       92334860 B   ---   --   ---xx   flac  0.5276  gd1987-06-21s2t10.flac
     9:27.49      100134092 B   ---   --   ---xx   flac  0.5627  gd1987-06-21s2t11.flac
    11:29.67      121697228 B   ---   --   ---xx   flac  0.5278  gd1987-06-21s2t12.flac
     6:08.19       64959932 B   ---   --   ---xx   flac  0.5057  gd1987-06-21s2t13.flac
   161:51.40     1713115668 B                            0.5276  (27 files)


Show Checksums
ffp
gd1987-06-21s1t01.flac:e5979b5d2232bde2f71276b37833c4e9
gd1987-06-21s1t02.flac:5717b65a922b062a8dc3b3baee03d87f
gd1987-06-21s1t03.flac:ed9109ccf0829cedc0be5869b3d99fc4
gd1987-06-21s1t04.flac:71889aaa1d5c82d655b85d10e48e9a6b
gd1987-06-21s1t05.flac:7a658e72154a21fa3ad5185da07fcb4f
gd1987-06-21s1t06.flac:bd2398be1543419daecbf619ada181fa
gd1987-06-21s1t07.flac:1b56f86dab50d3a3b27e834f625c8b0f
gd1987-06-21s1t08.flac:b1ecd5ffc7204e5a952831d404d99fc6
gd1987-06-21s1t09.flac:bf2999a0a6676623251a9dbdb9c0e99a
gd1987-06-21s1t10.flac:11053929719a6112f884bbaae11ae830
gd1987-06-21s1t11.flac:4f0d270a3d71579a74c1ff2b8866291e
gd1987-06-21s1t12.flac:c6a83680e4dafc96e36bce2974557356
gd1987-06-21s1t13.flac:1e28ecd838d09701cf661e5487f4daed
gd1987-06-21s1t14.flac:8f0e17d5585b9bd6ad7f2aacadcac917
gd1987-06-21s2t01.flac:d7ef685f10ef83640776546f6acf188d
gd1987-06-21s2t02.flac:0116959979f3fbea064712cd1e2ad2ed
gd1987-06-21s2t03.flac:5371db04f7250023748795c9df9be86f
gd1987-06-21s2t04.flac:521fea94ac74edef3f099d79fa40209a
gd1987-06-21s2t05.flac:58de2c28782b6a8e43a5b32dab5a2583
gd1987-06-21s2t06.flac:72bfa4ab80a534f5affe6196278a01ed
gd1987-06-21s2t07.flac:1df6316d59d6ee5858a6e43d85f08398
gd1987-06-21s2t08.flac:c9eaeecd7c91fd91bdb845c74e87fe72
gd1987-06-21s2t09.flac:c34dff3d0be029cbc9288577cf95b0e3
gd1987-06-21s2t10.flac:1066fb7f7db74627b0ee894a038d71b4
gd1987-06-21s2t11.flac:7a0da22ad95de5a3ecadb3cc50fbded0
gd1987-06-21s2t12.flac:47d55a0e237325a35437c89b40db7658
gd1987-06-21s2t13.flac:f5f2c97410e8e08de559d8f7cf8c6430
flac-md5
eb386258934cefa40e05df66b06c7531 *gd1987-06-21s1t01.flac
732daec2ef04d279d3115d2f6dbdbb0f *gd1987-06-21s1t02.flac
3e29009e525e7906a098bc56c6dccd4c *gd1987-06-21s1t03.flac
3098ffece3d2b14abdde429d33944922 *gd1987-06-21s1t04.flac
f52b883bebf80e90f4b4f40a61a2987d *gd1987-06-21s1t05.flac
ed4f6d5cae53d53a5c662dc4c9139e04 *gd1987-06-21s1t06.flac
46ca79802a377805485551101691bf7e *gd1987-06-21s1t07.flac
6ce4ab2e1aab225425a9c1432c903810 *gd1987-06-21s1t08.flac
629b9a59ff39ceb59daa362301d979ab *gd1987-06-21s1t09.flac
c0273be6c5aad08168aab42a5947e1eb *gd1987-06-21s1t10.flac
20475b037057c50b786a034eb77a2693 *gd1987-06-21s1t11.flac
e976d75a105d0c6b1f28ff3965b76efa *gd1987-06-21s1t12.flac
680124d3e4daeacbe44b35a20e324a57 *gd1987-06-21s1t13.flac
6668d298d358213b12c4c6eae6732d87 *gd1987-06-21s1t14.flac
918139dd94d0110825f84e7dedf1d9f3 *gd1987-06-21s2t01.flac
2104b74a39af79a0346582e0e54b3d3f *gd1987-06-21s2t02.flac
038d3a892f61a34dd4d3fede2de31429 *gd1987-06-21s2t03.flac
481881dc5719b2f603fe14f899d757b7 *gd1987-06-21s2t04.flac
cbbd5b62709d3449113aa204b9d732f1 *gd1987-06-21s2t05.flac
656e872cfc5c47b1be7450d6fafd546c *gd1987-06-21s2t06.flac
845123b6b256b3755f883d8cd4d8a4ad *gd1987-06-21s2t07.flac
f5fc5a69b200281177009ae81e3d96ef *gd1987-06-21s2t08.flac
cee50c07e0c68d218375ccae55e2416b *gd1987-06-21s2t09.flac
056ead2638ee35356e8002d784d64417 *gd1987-06-21s2t10.flac
a7742ab77d1ba7911d19ba42554b3435 *gd1987-06-21s2t11.flac
deb25429d605d91f7c4abd4e30f3fe0d *gd1987-06-21s2t12.flac
1be41818f37e211ba8dcd07ff8d1a921 *gd1987-06-21s2t13.flac

Comments
Add Comment
Other Sources (comments)
Missing China Doll & Drums;... (2) 1st Set and Encore: Nak... (0) SBD Source:... (1) flac16; AKG 414 B/TL... (1) flac16; Source:... (0) flac16; Recording... (2) flac24; Source:... (0)
Date User Comment