Browse Collections Artists Sources   Search Dates

Add Show    List Management    Help


Grateful Dead 04/17/83
Meadowlands Arena, East Rutherford, NJ
Comments Add Comment    Source Collectors    Add to Collection    Add to Want List    History
Source # 138277 Other Sources
Entered by Matt Vernon
Checksums flac-md5 , ffp
Disc Counts 0 / 0
Media Size Compressed: 1.22 GB (1312012735 bytes)
Date Circulated
Date Added
05/16/2017
05/16/2017
Source Summary flac16; 2 source matrix by Dusborne;Soundboard (shnid:132876), Soundboard Master Cassettes > Unk > Low Gen PCM Early 90's >Sony HG L750 Beta Tape > Sony SL2405 Beta VCR > Modified PCM601ESD >SPDIF > VX Pocket Emphasis Decoded In Neundo Track @ 16/44 Wave; Audience (shnid:117500) Recorded by The Weasel - "Da Weez" Transferred and mastered to .wav files by D5scott, Source: 2 Sennheiser 421 microphones > Sony TC-D5M - master analog cassettes, Transfer: Sony TC-D5M (original record deck) > Pre Sonus Inspire GT > Sound Forge > .wav files > Trader's Little Helper > flac files 
  Archive
Source Information - Download Text | Download Zip
Grateful Dead
April 17, 1983
Brendan Byrne Arena
East Rutherford, NJ

2 Source Matrix

Soundboard (shnid:132876)
--------------------------------------------------------------------------------------
gd1983-04-17.132876.SBD.Keo.Flac1644

Source Supplied By Anon, Thanks To B.R. For The Later PCM Transfer!

Soundboard Master Cassettes > Unk > Low Gen PCM Early 90's >
Sony HG L750 Beta Tape > Sony SL2405 Beta VCR > Modified PCM601ESD >
SPDIF > VX Pocket Emphasis Decoded In Neundo Track @ 16/44 Wave

Track Renamed With AudioGate Software V.3.0.2 @ 16/44 Wave
Tracked/Flacked With AudiGate V.3.0.2
SBE's Checked/Fixed With Trader's Little Helper
Metadata Tagging With Tag&Rename

Drums and Space Patched With Steve Hills Unk Master Audience:
Transfer With Nakamichi MR-1 > Korg MR-1000 @ 1 Bit/5.6 MHz
Dithered/Flacked With AudioGate V.3.0.2/Korg Aqua To 16/44 Wave.
There Was Only 5 More Seconds From Drums On The Hill Source.
Drums Patch Used From Steve Rolfe Source shnid 7317
Decoded Back To Wave With Trader's Little Helper
Flacked With AudioGate V.3.0.2

Comments:This Was shared by a friend to work on and to
circulate.Some tape pauses between first set songs, also
some higher right channel recording levels through out
most of the show.I decided to not patch the drums but to
add the missing section as it's own track, the space was
patched and joined.Considering there was only one other
soundboard source for this show we thought folks would
enjoy this one as well and to compare with the one that
circulates all ready!!!!!!
AS ALWAYS ENJOY!!!!!!!!!


Audience (shnid:117500)
-----------------------------------------------------------------------------------
gd83-04-17.117500.aud-senn421.daweez-d5scott.t-flac16

Recorded by The Weasel - "Da Weez"
Transferred and mastered to .wav files by D5scott

Source: 2 Sennheiser 421 microphones > Sony TC-D5M - master analog cassettes

Transfer: Sony TC-D5M (original record deck) > Pre Sonus Inspire GT > Sound Forge >
.wav files > Trader's Little Helper > flac files

R.I.P. Sandy - aka "Bigfoot"
----------------------------------------------------------------------------------------
---Thank you Keo for your work on the SBD.
---Thank you B.R. For the PCM transfer.
---Thank you "Da Weez" for recording the show.
---Thank you D5scott for your work on the AUD.
---Thank you Germain for your advice, encouragement, guidance and seeding.

Matrix by dusborne

05-02-2017
---------------------------------------------------------------------------------------

Set 1

101 - gd83-04-17s1t01 - Touch of Grey ->
102 - gd83-04-17s1t02 - Little Red Rooster
103 - gd83-04-17s1t03 - Duprees Diamond Blues
104 - gd83-04-17s1t04 - Beat it on Down the Line
105 - gd83-04-17s1t05 - It Must Have Been The Roses
106 - gd83-04-17s1t06 - Cassidy
107 - gd83-04-17s1t07 - Big Railroad Blues
108 - gd83-04-17s1t08 - Brother Esau
109 - gd83-04-17s1t09 - Peggy-O ->
110 - gd83-04-17s1t10 - Let It Grow ->
111 - gd83-04-17s1t11 - Might as Well

Set 2

201 - gd83-04-17s2t01 - Tuning
202 - gd83-04-17s2t02 - Help on the Way ->
203 - gd83-04-17s2t03 - Slipknot ->
204 - gd83-04-17s2t04 - Franklin's Tower ->
205 - gd83-04-17s2t05 - Man Smart (Woman Smarter)
206 - gd83-04-17s2t06 - Playing in the Band ->
207 - gd83-04-17s2t07 - Drums ->
208 - gd83-04-17s2t08 - Space ->
209 - gd83-04-17s2t09 - Love the One You're With* ->
210 - gd83-04-17s2t10 - The Wheel ->
211 - gd83-04-17s2t11 - Playin' reprise ->
212 - gd83-04-17s2t12 - Throwin Stones ->
213 - gd83-04-17s2t13 - Not Fade Away*

Encore
214 - gd83-04-17s2t14 - Brokedown Palace*

*with Stephen Stills
------------------------------------------------------------------------------------

Tagging notes:
Show information is embedded within the header of each flac file.
It will display on any player capable of directly playing flac
files. If converted to wav during processing, all tags will be
stripped, however audio data will remain unaffected. If you must
transcode to a lossy format, do so directly Flac > Lossy.
Use st5 to validate audio integrity.
Md5 values will change if tagging is altered.

Dave Usborne 05-02-2017

----------------------------------------------------------------------------------------

    length     expanded size    cdr  WAVE problems  fmt   ratio  filename
     6:33.53       69449900 B   ---   --   ---xx   flac  0.6589  gd83-04-17s1t01.flac
    10:46.62      114100268 B   ---   --   ---xx   flac  0.6372  gd83-04-17s1t02.flac
     6:32.31       69221756 B   ---   --   ---xx   flac  0.6583  gd83-04-17s1t03.flac
     4:05.37       43305068 B   ---   --   ---xx   flac  0.6647  gd83-04-17s1t04.flac
     5:22.30       56871404 B   ---   --   ---xx   flac  0.6353  gd83-04-17s1t05.flac
     6:33.07       69341708 B   ---   --   ---xx   flac  0.6525  gd83-04-17s1t06.flac
     5:24.23       57207740 B   ---   --   ---xx   flac  0.6835  gd83-04-17s1t07.flac
     5:22.18       56843180 B   ---   --   ---xx   flac  0.6276  gd83-04-17s1t08.flac
     8:15.55       87447404 B   ---   --   ---xx   flac  0.6255  gd83-04-17s1t09.flac
    13:35.37      143853068 B   ---   --   ---xx   flac  0.6694  gd83-04-17s1t10.flac
     4:36.34       48766412 B   ---   --   ---xx   flac  0.6703  gd83-04-17s1t11.flac
     0:43.15        7620524 B   ---   --   ---xx   flac  0.5206  gd83-04-17s2t01.flac
     3:52.68       41084780 B   ---   --   ---xx   flac  0.6601  gd83-04-17s2t02.flac
     6:01.22       63732188 B   ---   --   ---xx   flac  0.6759  gd83-04-17s2t03.flac
    11:38.21      123176636 B   ---   --   ---xx   flac  0.6975  gd83-04-17s2t04.flac
     8:52.73       94016540 B   ---   --   ---xx   flac  0.6656  gd83-04-17s2t05.flac
    16:02.72      169866188 B   ---   --   ---xx   flac  0.6686  gd83-04-17s2t06.flac
    10:15.35      108568364 B   ---   --   ---xx   flac  0.5848  gd83-04-17s2t07.flac
    11:46.30      124609004 B   ---   --   ---xx   flac  0.6239  gd83-04-17s2t08.flac
     6:18.38       66768620 B   ---   --   ---xx   flac  0.6933  gd83-04-17s2t09.flac
     5:26.69       57668732 B   ---   --   ---xx   flac  0.6827  gd83-04-17s2t10.flac
     4:05.10       43241564 B   ---   --   ---xx   flac  0.6710  gd83-04-17s2t11.flac
    10:08.07      107267708 B   ---   --   ---xx   flac  0.6767  gd83-04-17s2t12.flac
    10:52.27      115076348 B   ---   --   ---xx   flac  0.6586  gd83-04-17s2t13.flac
     5:42.20       60375884 B   ---   --   ---xx   flac  0.6434  gd83-04-17s2t14.flac
   188:54.69     1999480988 B                            0.6562  (25 files)


Show Checksums
flac-md5
a11278b483952d39f22f8519504bbec3 *gd83-04-17s1t01.flac
dd7c5d1550c7bb2a6e01a5d3a2741367 *gd83-04-17s1t02.flac
a99568e4072bf126c4f4ad3d4a732c2a *gd83-04-17s1t03.flac
e74acd3adcf30444384e67d6fb978181 *gd83-04-17s1t04.flac
9cf090e99292a04d7be08750d6818899 *gd83-04-17s1t05.flac
5d7334676d18608d32ba4861a4c036c9 *gd83-04-17s1t06.flac
13531c973d176d66ae01bd691f498125 *gd83-04-17s1t07.flac
8c9dde41ad547c25ac3d114d56bee245 *gd83-04-17s1t08.flac
4150bedadb9ed0fe1acdfe58c26eba7b *gd83-04-17s1t09.flac
45f3f9d0a81a7ff10146e0ee50027998 *gd83-04-17s1t10.flac
e2620b2b8880d45e8ba9f0a531b0b4a4 *gd83-04-17s1t11.flac
a887a4f2d3c16668d27d1283a0b70d3b *gd83-04-17s2t01.flac
90a78b4c8eb7cdd99a569243447cc337 *gd83-04-17s2t02.flac
d8af22a065db55bf8edb215878449c73 *gd83-04-17s2t03.flac
db21bd1b36612df496861ac3c9b41c42 *gd83-04-17s2t04.flac
1d32b459c84c8bc583ab407f30c271f4 *gd83-04-17s2t05.flac
22e455314ef766cd45f3d5784c3530b9 *gd83-04-17s2t06.flac
3925cd1a2dfadae2692e24957e05ffc0 *gd83-04-17s2t07.flac
97382a84a05b3a0cb28f4b7a4a4d4d50 *gd83-04-17s2t08.flac
13ec7edbc75a9d57da19ef4be8e8f500 *gd83-04-17s2t09.flac
511fe46a05d91b492e446ed19e32a10d *gd83-04-17s2t10.flac
c179dbd03c0d758db6c136a2d7286303 *gd83-04-17s2t11.flac
ffdaa5e538030ca0cc2fdca4da1f246d *gd83-04-17s2t12.flac
919d1867cc4232c1edfa749a85c364ec *gd83-04-17s2t13.flac
ba156c77f00cea7b13384a41f5de23af *gd83-04-17s2t14.flac
ffp
gd83-04-17s1t01.flac:0641ade9c92e310c3d45d4eecc752ef8
gd83-04-17s1t02.flac:dd95ee8d6fd66b2e61207548d573e736
gd83-04-17s1t03.flac:579638afb2bb403aaf73b262229aec85
gd83-04-17s1t04.flac:9487c39298cc87ac7ebe1b85eb7ce613
gd83-04-17s1t05.flac:84694207b195b23aad81ce5ef48caf26
gd83-04-17s1t06.flac:8702ebb5f43d0be46668adec6334eb31
gd83-04-17s1t07.flac:e61cefdf3997f1c48bfd6c63f223deb1
gd83-04-17s1t08.flac:afa44cd2823a1c85593467e44c4e402c
gd83-04-17s1t09.flac:b9ed92c228c53fd9bb329d65af2d7a76
gd83-04-17s1t10.flac:522f92ea127b55131782596e310ca670
gd83-04-17s1t11.flac:d5c59c29468ad46d52dd27f21d6b9781
gd83-04-17s2t01.flac:d80bf0d317f840b69ca4d2453b755cd8
gd83-04-17s2t02.flac:90c25f11c02791af4469f7192963a5c2
gd83-04-17s2t03.flac:48efa9b9132d6b2e4e28e694ef01ae15
gd83-04-17s2t04.flac:d5aeec84df76fc6a837e6c173f8a6372
gd83-04-17s2t05.flac:59eb241760d907bc4c490f29eeab69b1
gd83-04-17s2t06.flac:e5095b5981e3b60494ca896d9859248a
gd83-04-17s2t07.flac:82c117c73ea37956ec588beea10fbd5d
gd83-04-17s2t08.flac:8a9d65d71275712b729995adce4902e1
gd83-04-17s2t09.flac:e8d8956b389544523e0835b16c0d81a9
gd83-04-17s2t10.flac:717d547f03b8fc4bd696e77da54abbb2
gd83-04-17s2t11.flac:dabaaa2d0c7462ca9c109aa12ff03072
gd83-04-17s2t12.flac:280ced61c88e591dff3b0e2f665ef0f1
gd83-04-17s2t13.flac:50e6a18530f5db8ccd3f726f8d2e71e0
gd83-04-17s2t14.flac:9a2c8b9dca952ffda4522bfcd6a0ead9

Comments
Add Comment
Other Sources (comments)
AudMC > DAT > CDWAV > SHN;... (0) SBD : MC > C > DAT > CDR... (4) (FOB/3 mic Mix) Three Beyer... (0) flac16; Source: 2... (1) flac24; Updated... (0) flac16; Updated... (2) flac16; Soundboard... (0) flac24; Set 1... (0) flac16; Set 1... (0) flac24; Partial Show... (0) flac16; Partial Show... (0) flac16; SBD >... (0) flac1648; Master... (0) flac16/44.1khz ... (0) flac24/48 First... (0)
Date User Comment