Browse Collections Artists Sources   Search Dates

Add Show    List Management    Help


Grateful Dead 07/02/89
Sullivan Stadium, Foxboro, MA
Comments Add Comment    Source Collectors    Add to Collection    Add to Want List    History
Source # 138287 Other Sources
Entered by Matt Vernon
Checksums ffp , flac-md5
Disc Counts 0 / 0
Media Size Compressed: 3.43 GB (3683534734 bytes)
Uncompressed: 5.11 GB (5485587930 bytes)
Date Circulated
Date Added
05/18/2017
05/18/2017
Source Summary flac24; Recording Info: Ultra Matrix SBD > Cassette Master (TDK MA-XG90); Transfer Info: Cassette Master (Nakamichi CR-7A) > Tascam DA-3000 (DSF 1-bit/5.8 MHz) > KORG AudioGate 4 > Adobe Audition CC 2015 > Samplitude Pro X3 Suite > FLAC/24; All Transfers and Mastering By Charlie Miller 
  Archive
Source Information - Download Text | Download Zip
Grateful Dead - July 2, 1989
Sullivan Stadium - Foxboro, MA

Recording Info:
Ultra Matrix SBD > Cassette Master (TDK MA-XG90)

Transfer Info:
Cassette Master (Nakamichi CR-7A) > Tascam DA-3000 (DSF 1-bit/5.8 MHz) >
KORG AudioGate 4 > Adobe Audition CC 2015 > Samplitude Pro X3 Suite > FLAC/24
(1 Disc FLAC)

All Transfers and Mastering By Charlie Miller
[email protected]
May 17, 2017

Notes:
-- Two sets of master were used to make this show complete

Set 1:
01 - Tuning
02 - Playing In The Band >
03 - Crazy Fingers >
04 - Wang Dang Doodle
05 - We Can Run
06 - Tennessee Jed
07 - Queen Jane Approximately
08 - To Lay Me Down
09 - Cassidy >
10 - Don't Ease Me In

Set 2:
11 - Friend Of The Devil
12 - Truckin' >
13 - He's Gone >
14 - Eyes Of The World >
15 - Drums >
16 - Space >
17 - The Wheel >
18 - Dear Mr. Fantasy >
19 - Hey Jude >
20 - Sugar Magnolia

Encore:
21 - The Mighty Quinn (Quinn The Eskimo)


SHNTOOL OUTPUT:
    length     expanded size    cdr  WAVE problems  fmt   ratio  filename
     2:01.444      69951848 B   cxx   --   ---xx   flac  0.6526  01 Tuning.flac
     5:23.964     186603254 B   cxx   --   ---xx   flac  0.6874  02 Playing In The Band.flac
     7:40.548     265275578 B   cxx   --   ---xx   flac  0.6867  03 Crazy Fingers.flac
     8:11.957     283367036 B   cxx   --   ---xx   flac  0.6701  04 Wang Dang Doodle.flac
     5:26.082     187823348 B   cxx   --   ---xx   flac  0.6779  05 We Can Run.flac
     8:46.088     303026762 B   cxx   --   ---xx   flac  0.6733  06 Tennessee Jed.flac
     6:47.479     234707996 B   cxx   --   ---xx   flac  0.6702  07 Queen Jane Approximately.flac
    11:01.687     381131552 B   cxx   --   ---xx   flac  0.6729  08 To Lay Me Down.flac
     6:03.568     209414948 B   cxx   --   ---xx   flac  0.6892  09 Cassidy.flac
     3:20.695     115600322 B   cxx   --   ---xx   flac  0.6822  10 Don't Ease Me In.flac
    11:37.178     401574806 B   cxx   --   ---xx   flac  0.6658  11 Friend Of The Devil.flac
     7:08.428     246774314 B   cxx   --   ---xx   flac  0.6750  12 Truckin'.flac
    13:56.018     481546202 B   cxx   --   ---xx   flac  0.6655  13 He's Gone.flac
    10:46.685     372490652 B   cxx   --   ---xx   flac  0.6774  14 Eyes Of The World.flac
     7:41.992     266107544 B   cxx   --   ---xx   flac  0.6125  15 Drums.flac
    11:02.145     381395624 B   cxx   --   ---xx   flac  0.6472  16 Space.flac
     5:05.346     175879178 B   cxx   --   ---xx   flac  0.6809  17 The Wheel.flac
     7:02.492     243355238 B   cxx   --   ---xx   flac  0.6877  18 Dear Mr Fantasy.flac
     3:49.499     132191198 B   cxx   --   ---xx   flac  0.6897  19 Hey Jude.flac
     9:29.211     327865736 B   cxx   --   ---xx   flac  0.6860  20 Sugar Magnolia.flac
     6:21.085     219504794 B   cxx   --   ---xx   flac  0.6809  21 The Mighty Quinn (Quinn The Eskimo).flac
   158:43.589    5485587930 B                            0.6715  (21 files)


Show Checksums
ffp
01 Tuning.flac:3ae4e04589834296285f315984579516
02 Playing In The Band.flac:91332e077a1f07e0fa65ada8829f2417
03 Crazy Fingers.flac:e62ee4b42d1da9ba095dc05650113ccf
04 Wang Dang Doodle.flac:02f3f78f9cca51bb71be2edb0b235aa2
05 We Can Run.flac:968de4b3453316f1e472756568f2d819
06 Tennessee Jed.flac:91de5d7526477417c47af612cfba0a9f
07 Queen Jane Approximately.flac:bc76ae1b5b80cc0434492c887c8805db
08 To Lay Me Down.flac:ba0ce79c3e2f64c242c6c4cc7da5019f
09 Cassidy.flac:8d542f6e58a78a7bdcc963085cf8b4fc
10 Don't Ease Me In.flac:218b329f477ac686b715d00dbbe1f9d1
11 Friend Of The Devil.flac:fa1d05cf359c09356dc3c409cd2b999d
12 Truckin'.flac:6c5dffa809efe6a22a1e6a5c9d51374f
13 He's Gone.flac:3f94d7d2f4acd4a1321a51ff88f52e7f
14 Eyes Of The World.flac:4114ae434eb92dc846cc29e37f073683
15 Drums.flac:c8d416e8defaa9b0f22a10e649031b16
16 Space.flac:503c3bb1c2959054035a0b159656984e
17 The Wheel.flac:720ef7a1f64c8580bb0be4ae7d13cc89
18 Dear Mr Fantasy.flac:120fb2b47ef3d1f8b8dc031962b093c3
19 Hey Jude.flac:06075f0ad0f09009be6522c9badbe396
20 Sugar Magnolia.flac:d7034f3016013bc44802781cf216dc3e
21 The Mighty Quinn (Quinn The Eskimo).flac:194854e50ba651f3d743306ab2bf14b4
flac-md5
3eb5400281220cab1749c3f6a0be8a85 *01 Tuning.flac
918d114b4a8c535703c83a7a3421c934 *02 Playing In The Band.flac
5338d7d74e8689ddeb9943707772cca0 *03 Crazy Fingers.flac
e3c6758082db7d999e9cdf39ebe312e2 *04 Wang Dang Doodle.flac
1ddb698289ccdc4682601403cbec7387 *05 We Can Run.flac
a2bfd0dfe1464a82d97e925bd083b164 *06 Tennessee Jed.flac
89493845810cf6373aa74d893005c341 *07 Queen Jane Approximately.flac
7f4b76cd52b31764b17d5485ffc3531a *08 To Lay Me Down.flac
01e75129fb1e8e90c415f49cbfbb4b71 *09 Cassidy.flac
9bc36e687ab42ec7d7aab77c23626bef *10 Don't Ease Me In.flac
c4aae4a075f23a5ce00c785f877faf13 *11 Friend Of The Devil.flac
b39a052dfaa6813f695357663718e262 *12 Truckin'.flac
a83abc806d07106021c88bdcb3380ed2 *13 He's Gone.flac
f6e36d7d20fc78bfa7aacea3f29fb31c *14 Eyes Of The World.flac
71d8be6d3130248c3de29052babc1144 *15 Drums.flac
ba0b048694e2bdbfbfcbb627b6f2926d *16 Space.flac
fcb824d1cac889046db8650224080d64 *17 The Wheel.flac
a3b5e010a91bf90ca0a0e3a92c41f92c *18 Dear Mr Fantasy.flac
b807eed4c588164f3c1a69dd7a193102 *19 Hey Jude.flac
50cbe75197539a5b5221f7248fed906a *20 Sugar Magnolia.flac
0577be7853e25f3d45e01615998d954c *21 The Mighty Quinn (Quinn The Eskimo).flac

Comments
Add Comment
Other Sources (comments)
FOB Schoeps CMC42s spaced... (2) Digital Audience - Jill &... (0) flac16; AKG... (1) flac16; FOB Schoeps... (0) flac16; SRC: FOB... (0) flac24; SRC: FOB... (1) flac16; Source:... (0) flac24/96; Taper:... (0) flac24; FOB AUD:... (0) flac16; FOB AUD:... (0) flac16; Nakamichi... (0) flac16; Source:... (0) flac16; Source: AKG... (1) flac16; Source:... (0) flac16; Ted Mattes... (0) flac16; Recording... (0)
Date User Comment