Browse Collections Artists Sources   Search Dates

Add Show    List Management    Help


Grateful Dead 07/02/89
Sullivan Stadium, Foxboro, MA
Comments Add Comment    Source Collectors    Add to Collection    Add to Want List    History
Source # 138306 Other Sources
Entered by Matt Vernon
Checksums flac-md5 , ffp
Disc Counts 0 / 0
Media Size Compressed: 985.04 MB (1032884224 bytes)
Uncompressed: 1.56 GB (1679963964 bytes)
Date Circulated
Date Added
05/20/2019
05/20/2017
Source Summary flac16; Recording Info: Ultra Matrix SBD > Cassette Master (TDK MA-XG90); Transfer Info: Cassette Master (Nakamichi CR-7A) > Tascam DA-3000 (DSF 1-bit/5.8 MHz) > KORG AudioGate 4 > Adobe Audition CC 2015 > Samplitude Pro X3 Suite > FLAC/24; All Transfers and Mastering By Charlie Miller, This is 138287 24 bit -> 16 bit 
  Archive
Source Information - Download Text | Download Zip
Grateful Dead - July 2, 1989
Sullivan Stadium - Foxboro, MA

Recording Info:
Ultra Matrix SBD > Cassette Master (TDK MA-XG90)

Transfer Info:
Cassette Master (Nakamichi CR-7A) > Tascam DA-3000 (DSF 1-bit/5.8 MHz) >
KORG AudioGate 4 > Adobe Audition CC 2015 > Samplitude Pro X3 Suite > FLAC/24
(1 Disc FLAC)

All Transfers and Mastering By Charlie Miller
[email protected]
May 17, 2017

Notes:
-- Two sets of master were used to make this show complete
-- This is 138287 24 bit -> 16 bit

Set 1:
01 - Tuning
02 - Playing In The Band >
03 - Crazy Fingers >
04 - Wang Dang Doodle
05 - We Can Run
06 - Tennessee Jed
07 - Queen Jane Approximately
08 - To Lay Me Down
09 - Cassidy >
10 - Don't Ease Me In

Set 2:
11 - Friend Of The Devil
12 - Truckin' >
13 - He's Gone >
14 - Eyes Of The World >
15 - Drums >
16 - Space >
17 - The Wheel >
18 - Dear Mr. Fantasy >
19 - Hey Jude >
20 - Sugar Magnolia

Encore:
21 - The Mighty Quinn (Quinn The Eskimo)


SHNTOOL OUTPUT:
    length     expanded size    cdr  WAVE problems  fmt   ratio  filename
     2:01.33       21422060 B   ---   --   ---xx   flac  0.5386  01 Tuning.flac
     5:23.72       57146588 B   ---   --   ---xx   flac  0.6512  02 Playing In The Band.flac
     7:40.41       81240476 B   ---   --   ---xx   flac  0.6503  03 Crazy Fingers.flac
     8:11.72       86781788 B   ---   --   ---xx   flac  0.6090  04 Wang Dang Doodle.flac
     5:26.06       57520556 B   ---   --   ---xx   flac  0.6335  05 We Can Run.flac
     8:46.07       92802908 B   ---   --   ---xx   flac  0.6166  06 Tennessee Jed.flac
     6:47.36       71879516 B   ---   --   ---xx   flac  0.6224  07 Queen Jane Approximately.flac
    11:01.51      116720396 B   ---   --   ---xx   flac  0.5950  08 To Lay Me Down.flac
     6:03.43       64134380 B   ---   --   ---xx   flac  0.6655  09 Cassidy.flac
     3:20.52       35402348 B   ---   --   ---xx   flac  0.6487  10 Don't Ease Me In.flac
    11:37.13      122981420 B   ---   --   ---xx   flac  0.6101  11 Friend Of The Devil.flac
     7:08.32       75574508 B   ---   --   ---xx   flac  0.6385  12 Truckin'.flac
    13:56.02      147475148 B   ---   --   ---xx   flac  0.5926  13 He's Gone.flac
    10:46.51      114074396 B   ---   --   ---xx   flac  0.6342  14 Eyes Of The World.flac
     7:41.74       81494492 B   ---   --   ---xx   flac  0.5219  15 Drums.flac
    11:02.11      116802716 B   ---   --   ---xx   flac  0.5237  16 Space.flac
     5:05.26       53863196 B   ---   --   ---xx   flac  0.6367  17 The Wheel.flac
     7:02.37       74527868 B   ---   --   ---xx   flac  0.6577  18 Dear Mr Fantasy.flac
     3:49.37       40482668 B   ---   --   ---xx   flac  0.6642  19 Hey Jude.flac
     9:29.16      100409276 B   ---   --   ---xx   flac  0.6514  20 Sugar Magnolia.flac
     6:21.08       67227260 B   ---   --   ---xx   flac  0.6336  21 The Mighty Quinn (Quinn The Eskimo).flac
   158:43.45     1679963964 B                            0.6148  (21 files)




Show Checksums
flac-md5
bd7b8a32816df5f0fdad0ddb40e304ba *01 Tuning.flac
6c42a8b1d4fec22747a804c7e71d728a *02 Playing In The Band.flac
247d766afc490c8bea99942597ec833c *03 Crazy Fingers.flac
6ee2622dc4d7be2f95d2b9f07da331e1 *04 Wang Dang Doodle.flac
18887877af232c186a223642a2326c79 *05 We Can Run.flac
e201d0950b0057e0cdce53bb2f26e4bb *06 Tennessee Jed.flac
655bb1152d823a067c2b1942b0362875 *07 Queen Jane Approximately.flac
8cdccbc8d111b22b9952318443592415 *08 To Lay Me Down.flac
5499bcb01ba1f67d2305e75518736847 *09 Cassidy.flac
f6b137cbf6f35c78281d9888c5fd22fd *10 Don't Ease Me In.flac
655c9c679f9d875f7c74240a9cc9b0ad *11 Friend Of The Devil.flac
d32f663ed1927fc04d4487ed69429912 *12 Truckin'.flac
510fd362ce4823b31d8552993de2094c *13 He's Gone.flac
96402511cc578b8b317764b094ff846c *14 Eyes Of The World.flac
bccb006371c40c88ecce3b0b47bb78cf *15 Drums.flac
1e8da4b43be9891981ebabdff8221324 *16 Space.flac
72bb795bbc11f68b572614a716f2aa8f *17 The Wheel.flac
52799b6b371ad8b410021c0397673d4e *18 Dear Mr Fantasy.flac
04b575e98c2293e7de60d9c8b29ad389 *19 Hey Jude.flac
075dcad0c8ed2f90e978944b17c2dacb *20 Sugar Magnolia.flac
18a5a3bdc61e8165ce5553383658b894 *21 The Mighty Quinn (Quinn The Eskimo).flac
ffp
01 Tuning.flac:7a530cc9528e15c61549425c2d7cb558
02 Playing In The Band.flac:71f3cb7eb3c241c6964cd91c7d6fcd2e
03 Crazy Fingers.flac:82cc37f6a7f019af5297e42a8ffa3462
04 Wang Dang Doodle.flac:abb35d405a7d215906c908af12139992
05 We Can Run.flac:b0f5434f5e000f94e215c6f312c5fa9d
06 Tennessee Jed.flac:6e03da0c710159ae4751a4c75ab71134
07 Queen Jane Approximately.flac:1789207afe7c896af9fc153135d8a83b
08 To Lay Me Down.flac:1f40c5105f393ace17b13b6601b695f5
09 Cassidy.flac:77bb4822f15c3ddc4a93d1103633b282
10 Don't Ease Me In.flac:92cbb283d925be9f126817c33c63cd16
11 Friend Of The Devil.flac:89866b4d620058ac8fcc69a5530b8c48
12 Truckin'.flac:34426c4d4f1961aa7f0a67ef82c97ee0
13 He's Gone.flac:69f1072414130929e9c36855746e91da
14 Eyes Of The World.flac:632533a66d96dce987e6bdccd8ced110
15 Drums.flac:437d70b2e7568539fee71d2f42b54c78
16 Space.flac:22048916cf23450387b493e6ab9a71b9
17 The Wheel.flac:fd7a4f82159221e1123fbd17e14e57cd
18 Dear Mr Fantasy.flac:75511406324f8b6500ea22f15ad6cb11
19 Hey Jude.flac:5058fbe035dc8aa6344a6fbe78faf9fc
20 Sugar Magnolia.flac:54be39bf09c75810fe17f65ef305894c
21 The Mighty Quinn (Quinn The Eskimo).flac:80d251becdf9b262578fb780bab836e3

Comments
Add Comment
Other Sources (comments)
FOB Schoeps CMC42s spaced... (2) Digital Audience - Jill &... (0) flac16; AKG... (1) flac16; FOB Schoeps... (0) flac16; SRC: FOB... (0) flac24; SRC: FOB... (1) flac16; Source:... (0) flac24/96; Taper:... (0) flac24; FOB AUD:... (0) flac16; FOB AUD:... (0) flac16; Nakamichi... (0) flac16; Source:... (0) flac16; Source: AKG... (1) flac16; Source:... (0) flac16; Ted Mattes... (0) flac24; Recording... (0)
Date User Comment