Browse Collections Artists Sources   Search Dates

Add Show    List Management    Help


Garcia 04/13/79
Rainbow Music Hall, Denver, CO
Comments Add Comment    Source Collectors    Add to Collection    Add to Want List    History
Source # 138568 Other Sources
Entered by Joe Jupille
Checksums jg1979-04-13..ffp , jg1979-04-13..md5
Disc Counts 0 / 0
Media Size Compressed: 433.02 MB (454053888 bytes)
Date Circulated
Date Added
06/15/2017
06/15/2017
Source Summary Reconstruction; flac1644; MSC (TDK SA) > 1st gen cassette (TDK AD) recorded on Sony 158SD deck. This is This is 126161 24 bit -> 16 bit 
Source Information - Download Text | Download Zip
Reconstruction, Rainbow Theater, Denver
April 13, 1979

Cass master-TDK SA> TDK AD cass recorded on Sony 158SD deck

Notes:
-- This is 126161 24 bit -> 16 bit

What You Wont Do For Love
Soul Roach
Lovely Night For Dancin
Instrumental
Struggling Man
Aint That Lovin You
Long Train Running> Fast Tone
Its No Use

I recorded this on August 11,1979 while out for the Red Rocks shows. I was staying with a guy who worked at the Rainbow.

    length     expanded size    cdr  WAVE problems  fmt   ratio  filename
     8:01.30       84919004 B   ---   --   ---xx   flac  0.4944  jg.recon 79-04-13 Trk01.flac
    13:44.66      145508876 B   ---   --   ---xx   flac  0.4894  jg.recon 79-04-13 Trk02.flac
    12:48.35      135557564 B   ---   --   ---xx   flac  0.4868  jg.recon 79-04-13 Trk03.flac
    10:40.27      112959548 B   ---   --   ---xx   flac  0.4965  jg.recon 79-04-13 Trk04.flac
     6:38.45       70313084 B   ---   --   ---xx   flac  0.4837  jg.recon 79-04-13 Trk05.flac
     8:39.46       91659836 B   ---   --   ---xx   flac  0.4956  jg.recon 79-04-13 Trk06.flac
    16:10.07      171124508 B   ---   --   ---xx   flac  0.4902  jg.recon 79-04-13 Trk07.flac
    10:54.11      115391516 B   ---   --   ---xx   flac  0.4805  jg.recon 79-04-13 Trk08.flac
    87:37.42      927433936 B                            0.4896  (8 files)


Show Checksums
jg1979-04-13..ffp
jg.recon 79-04-13 Trk01.flac:de6c8c692bb3205b9aee182c017bee85
jg.recon 79-04-13 Trk02.flac:837c35c0edf4919ffdc64647f8566415
jg.recon 79-04-13 Trk03.flac:ab646a9bd598a2b1384ab3a2ce5d602e
jg.recon 79-04-13 Trk04.flac:98c8d358cb378377f17af883a7ca8fcd
jg.recon 79-04-13 Trk05.flac:9e067578245936b8e2decfc824ed62c3
jg.recon 79-04-13 Trk06.flac:dc829cf486519be42aa1b2cdb6b103ba
jg.recon 79-04-13 Trk07.flac:0d4342cf9d5ef8199e4a97839ab131d4
jg.recon 79-04-13 Trk08.flac:5025cf009592150722f265a97bda0a0f
jg1979-04-13..md5
8709c338e006b55e5125e991fc1cd2d9 *jg.recon 79-04-13 Trk01.flac
be6506009090c8cf3cce94b6a238d04f *jg.recon 79-04-13 Trk02.flac
f4645734bc462f96d31bbc5ab339663e *jg.recon 79-04-13 Trk03.flac
cc7c6ed0573ab6b6f176b2b254c9d8c6 *jg.recon 79-04-13 Trk04.flac
8c20d1ca209ad2ddf043ef68908b985c *jg.recon 79-04-13 Trk05.flac
4b8d601f9926d43353eeea8d915f9951 *jg.recon 79-04-13 Trk06.flac
686356cb849fec8aea15e305b0c09408 *jg.recon 79-04-13 Trk07.flac
247a8203cdb768689be53402c8dc2a28 *jg.recon 79-04-13 Trk08.flac

Comments
Add Comment
Other Sources (comments)
Reconstruction; flac2448;... (2)
Date User Comment