Browse Collections Artists Sources   Search Dates

Add Show    List Management    Help


Garcia 05/22/91
Warfield Theater, San Francisco, CA
Comments Add Comment    Source Collectors    Add to Collection    Add to Want List    History
Source # 138582 Other Sources
Entered by Joe Jupille
Checksums jgb1991-05-22s1.ffp , jgb1991-05-22s1.md5
Disc Counts 0 / 0
Media Size Compressed: 479.43 MB (502714368 bytes)
Uncompressed: 780.16 MB (818054176 bytes)
Date Circulated
Date Added
06/18/2017
06/18/2017
Source Summary JGB, flac1644; 1st Set, Unknown AUD > ? > C > WAV, kindly provided by http://jgmf.blogspot.com/ Transfer: Cassette > Unknown transfer > WAV 1696 > R8Brain > Wavelab > CD-Wave > TLH > FLAC 1644 tagged. Transfer by Andrew F. 06/2017 
Source Information - Download Text | Download Zip
JERRY GARCIA BAND
Warfield Theater
San Francisco CA
05-22-1991
First Set

s1t01 How Sweet It Is
s1t02 He Aint' Give You None
s1t03 That's What Love Will Make You Do
s1t04 Love in the Afternoon
s1t05 I Second That Emotion
s1t06 Like a Road
s1t07 My Sisters & Brothers
s1t08 Let's Spend the Night Together

Unknown AUD > ? > C > WAV, kindly provided by http://jgmf.blogspot.com/

Transfer: Cassette > Unknown transfer > WAV 1696 > R8Brain > Wavelab >
CD-Wave > TLH > FLAC 1644 tagged. Transfer by Andrew F. 06/2017

Note: JGMF's "kitchen floor rescue" tape, replete with numerous audio
issues, but still listenable. This is the only lossless file-set source
for this date as of June 2017. There are some jarring total drop-outs
(bad mic-cable?) at; HSII 1:01, TWLWMYD 1:38, ISTE 2:31, 5:04, & 8:50.

    length     expanded size    cdr  WAVE problems  fmt   ratio  filename
     9:19.32       98682908 B   ---   --   ---xx   flac  0.6166  jgb1991-05-22s1t01.flac
    11:00.25      116482844 B   ---   --   ---xx   flac  0.6220  jgb1991-05-22s1t02.flac
    12:02.27      127424348 B   ---   --   ---xx   flac  0.6125  jgb1991-05-22s1t03.flac
     7:49.11       82757516 B   ---   --   ---xx   flac  0.6112  jgb1991-05-22s1t04.flac
    10:24.65      110226524 B   ---   --   ---xx   flac  0.6055  jgb1991-05-22s1t05.flac
     8:04.29       85445852 B   ---   --   ---xx   flac  0.5995  jgb1991-05-22s1t06.flac
     4:20.38       45953420 B   ---   --   ---xx   flac  0.6188  jgb1991-05-22s1t07.flac
    14:16.35      151080764 B   ---   --   ---xx   flac  0.6246  jgb1991-05-22s1t08.flac
    77:17.37      818054176 B                            0.6145  (8 files)

No errors occured.


Show Checksums
jgb1991-05-22s1.ffp
jgb1991-05-22s1t01.flac:49d3407aae5ab462a14c98cb00afabfa
jgb1991-05-22s1t02.flac:5599b1142f9262e19bfae3af8b790306
jgb1991-05-22s1t03.flac:e59c06697e2ed49ad6022a273c719366
jgb1991-05-22s1t04.flac:5e1454e303744e5a1d58dbf6201e6b3d
jgb1991-05-22s1t05.flac:94e86b6bfac298ff40958e68d7709f58
jgb1991-05-22s1t06.flac:66ab2d886be1ab1e139d8bc74e05fa7b
jgb1991-05-22s1t07.flac:73baf873219920d478b76428848a1d4a
jgb1991-05-22s1t08.flac:b8c3bf36a9bee00a5bde30fcb938af5b
jgb1991-05-22s1.md5
318059955645a0da4b75da531bb4f145 *jgb1991-05-22s1t01.flac
6e9bb9151f944a5c88ba14cec1f9b7dd *jgb1991-05-22s1t02.flac
3e5cc1d35f3c3c4eb00eaa4c30be7f9e *jgb1991-05-22s1t03.flac
587dee4031c245ab772397441075ff47 *jgb1991-05-22s1t04.flac
0f4fe0fb0d85ff25a35905b4bef27277 *jgb1991-05-22s1t05.flac
5f8fc1371a22914f7b6fd3335da38392 *jgb1991-05-22s1t06.flac
34e931ab7ebdb45656b5cad6d9e0d396 *jgb1991-05-22s1t07.flac
c07f644fa0cea3e910909767cced739d *jgb1991-05-22s1t08.flac

Comments
Add Comment
Date User Comment