Browse Collections Artists Sources   Search Dates

Add Show    List Management    Help


Phish 05/02/92
Cabaret Metro, Chicago, IL
Comments Add Comment    Source Collectors    Add to Collection    Add to Want List    History
Source # 138656 Other Sources
Entered by Matt Vernon
Checksums ffp , shn-st5 , shn-md5
Disc Counts 0 / 0
Media Size
Date Circulated
Date Added

06/25/2017
Source Summary flac16 44.1khz Nak's hung from the ceiling > dat > cdr > eac > shn v 3.0 > [flac(8) by mvernon ~ 6/25/17 see notes] 
Source Information - Download Text | Download Zip
The PHiSH
05-02-92 Cabaret Metro, Chicago, IL
Nak's hung from the ceiling > dat > cdr
cdr > eac > shn v 3.0 > [flac(8) by mvernon ~ 6/25/17 see notes]

Set 1

d1t01 - Runaway Jim,
d1t02 - Colonel Forbin's Ascent->
d1t01 - Icculus->
d1t04 - Famous Mockingbird,
d1t05 - Sparkle,
d1t06 - Reba,
d1t07 - Maze,
d1t08 - Bouncing Around the Room,
d1t10 - Stash,
d1t01 - The Squirming Coil,
d2t01 - Llama

Set 2

d2t02 - Glide,
d2t03 - Intro...>
d2t04 - David Bowie>
d2t05 - Band Football Theme Song > David Bowie
d2t06 - Tela,
d2t07 - Foam,
d2t08 - You Enjoy Myself,
d3t01 - Chalk Dust Torture,
d3t02 - Cracklin' Rosie,
d3t03 - Cavern
d3t04 - E: Sleeping Monkey,
d3t05 - Big Black Furry Creature From Mars

Notes:

This source was circulating after etree’s data base was built but was never added as a source. This source was supplied to mvernon by jud howell ~ May, 2017 as part of the search for sources made at that time.

The source was originally in shn. The shn files were converted to flac directly using Xact’s encoding function at flac level 8.

The original shn file md5 and st5 are also included.  this will allow others that may have had this heretofore unlisted source to verify if it matches.

However, as of June 2017, the preferred file format is flac.  Note that the wav files will be the same regardless as long as the files match either the st5 or ffp checksums provided.

    length     expanded size    cdr  WAVE problems  fmt   ratio  filename
     7:29.26       79264796 B   ---   --   ---xx   flac  0.6793  ph92-05-02d1t01.flac
     9:11.65       97349324 B   ---   --   ---xx   flac  0.6439  ph92-05-02d1t02.flac
     3:24.02       35990348 B   ---   --   ---xx   flac  0.6301  ph92-05-02d1t03.flac
     7:21.20       77839484 B   ---   --   ---xx   flac  0.6398  ph92-05-02d1t04.flac
     3:52.65       41077724 B   ---   --   ---xx   flac  0.6472  ph92-05-02d1t05.flac
    11:57.08      126497660 B   ---   --   ---xx   flac  0.6428  ph92-05-02d1t06.flac
     8:01.12       84876668 B   ---   --   ---xx   flac  0.6545  ph92-05-02d1t07.flac
     4:10.45       44205884 B   ---   --   ---xx   flac  0.6052  ph92-05-02d1t08.flac
     9:44.40      103111724 B   ---   --   ---xx   flac  0.6360  ph92-05-02d1t09.flac
     7:34.49       80200892 B   ---   --   ---xx   flac  0.5857  ph92-05-02d1t10.flac
     4:30.30       47698604 B   ---   --   ---xx   flac  0.6381  ph92-05-02d2t01.flac
     4:26.72       47091788 B   ---   --   ---xx   flac  0.6218  ph92-05-02d2t02.flac
     3:34.70       37914284 B   ---   --   ---xx   flac  0.6216  ph92-05-02d2t03.flac
     5:27.30       57753404 B   ---   --   ---xx   flac  0.6584  ph92-05-02d2t04.flac
     5:45.48       60970940 B   ---   --   ---xx   flac  0.6831  ph92-05-02d2t05.flac
     7:51.70       83249084 B   ---   --   ---xx   flac  0.6237  ph92-05-02d2t06.flac
     8:12.49       86904092 B   ---   --   ---xx   flac  0.6423  ph92-05-02d2t07.flac
    19:53.74      210619292 B   ---   --   ---xx   flac  0.6405  ph92-05-02d2t08.flac
     6:11.56       65576156 B   ---   --   ---xx   flac  0.6667  ph92-05-02d3t01.flac
     4:14.20       44852684 B   ---   --   ---xx   flac  0.6339  ph92-05-02d3t02.flac
     5:05.46       53910236 B   ---   --   ---xx   flac  0.6522  ph92-05-02d3t03.flac
     5:41.00       60152444 B   ---   --   ---xx   flac  0.6083  ph92-05-02d3t04.flac
     7:58.49       84434492 B   ---   --   ---xx   flac  0.6100  ph92-05-02d3t05.flac
   161:42.46     1711542004 B                            0.6385  (23 files)


Show Checksums
ffp
ph92-05-02d1t01.flac:1795364c75b93ea0ebebd465b83028cb
ph92-05-02d1t02.flac:e7a15c61227349983098c1c00e3dc5a0
ph92-05-02d1t03.flac:b7fcf6752feb9ad4f9512d0b293b6e61
ph92-05-02d1t04.flac:47d256c1285f9da97ccff2d0bfaba8e2
ph92-05-02d1t05.flac:a20ba36dc05e04c13f1a3eed8b388373
ph92-05-02d1t06.flac:e8a208a1ec47dc5e3359cb5437fd4c71
ph92-05-02d1t07.flac:4fb89cb92431634da917c03b96b1c169
ph92-05-02d1t08.flac:ebead331814eeac3ce33d88663047a4d
ph92-05-02d1t09.flac:702e5a95b01de2a66162431d0920dd6e
ph92-05-02d1t10.flac:74263720cee389a36b2075d6b9de73c8
ph92-05-02d2t01.flac:7fc3ee24f9fabd26d2f76cd82f8ce296
ph92-05-02d2t02.flac:eafc9ae4f4e8d386e60bb3fd74bf82ed
ph92-05-02d2t03.flac:ecb9090b22c13b37a501a1df4b8eea77
ph92-05-02d2t04.flac:b98d1cf14ddf29837f618ec2d561052c
ph92-05-02d2t05.flac:f1c433530db3550cb9c2ef1349497bc3
ph92-05-02d2t06.flac:ea4a7c43f1af25dd5fd3025429b51ce4
ph92-05-02d2t07.flac:a5f3418de65e2f5e6e06193c28a6648f
ph92-05-02d2t08.flac:3eb9705b1b1965dd642f016a35490a54
ph92-05-02d3t01.flac:90c69677a9e711ac900849641317e1d4
ph92-05-02d3t02.flac:e85bbe20b12bb59f31ccc07612ef0f60
ph92-05-02d3t03.flac:08674cce533e36c516c7f03d78a0d820
ph92-05-02d3t04.flac:8d305e5c091f3ba03885c93d2757577c
ph92-05-02d3t05.flac:938455f15bc2f7c45065d2b8be6d3be8
shn-st5
1795364c75b93ea0ebebd465b83028cb [shntool] ph92-05-02d1t01.shn
e7a15c61227349983098c1c00e3dc5a0 [shntool] ph92-05-02d1t02.shn
b7fcf6752feb9ad4f9512d0b293b6e61 [shntool] ph92-05-02d1t03.shn
47d256c1285f9da97ccff2d0bfaba8e2 [shntool] ph92-05-02d1t04.shn
a20ba36dc05e04c13f1a3eed8b388373 [shntool] ph92-05-02d1t05.shn
e8a208a1ec47dc5e3359cb5437fd4c71 [shntool] ph92-05-02d1t06.shn
4fb89cb92431634da917c03b96b1c169 [shntool] ph92-05-02d1t07.shn
ebead331814eeac3ce33d88663047a4d [shntool] ph92-05-02d1t08.shn
702e5a95b01de2a66162431d0920dd6e [shntool] ph92-05-02d1t09.shn
74263720cee389a36b2075d6b9de73c8 [shntool] ph92-05-02d1t10.shn
7fc3ee24f9fabd26d2f76cd82f8ce296 [shntool] ph92-05-02d2t01.shn
eafc9ae4f4e8d386e60bb3fd74bf82ed [shntool] ph92-05-02d2t02.shn
ecb9090b22c13b37a501a1df4b8eea77 [shntool] ph92-05-02d2t03.shn
b98d1cf14ddf29837f618ec2d561052c [shntool] ph92-05-02d2t04.shn
f1c433530db3550cb9c2ef1349497bc3 [shntool] ph92-05-02d2t05.shn
ea4a7c43f1af25dd5fd3025429b51ce4 [shntool] ph92-05-02d2t06.shn
a5f3418de65e2f5e6e06193c28a6648f [shntool] ph92-05-02d2t07.shn
3eb9705b1b1965dd642f016a35490a54 [shntool] ph92-05-02d2t08.shn
90c69677a9e711ac900849641317e1d4 [shntool] ph92-05-02d3t01.shn
e85bbe20b12bb59f31ccc07612ef0f60 [shntool] ph92-05-02d3t02.shn
08674cce533e36c516c7f03d78a0d820 [shntool] ph92-05-02d3t03.shn
8d305e5c091f3ba03885c93d2757577c [shntool] ph92-05-02d3t04.shn
938455f15bc2f7c45065d2b8be6d3be8 [shntool] ph92-05-02d3t05.shn
shn-md5
8bb3790f3443fa7c76f5c66f06d9d4f9 *ph92-05-02d2t08.shn
fcbddd9de35b74b0b0f83c50de2915f6 *ph92-05-02d1t02.shn
28dae0cf817128285475ad5314192072 *ph92-05-02d1t03.shn
a0685316fe0b00612e0a62e5b13346ca *ph92-05-02d1t04.shn
124cc84883c9af4561e5231f611222f6 *ph92-05-02d1t05.shn
a6f40323d0235c88ef6a09fe4cfdd5af *ph92-05-02d1t06.shn
a43e1979d37f2c20dc1e93aacf6b0264 *ph92-05-02d1t07.shn
f7cd1326a43199b7db00825e3427d931 *ph92-05-02d1t08.shn
c6e2b5fd722308932271b627b0049172 *ph92-05-02d1t09.shn
014cde933b7075da9cfd4dc93b5092f0 *ph92-05-02d1t10.shn
caeedda9ef7a29491acfb07e47bfbdfb *ph92-05-02d2t01.shn
b6c1169ba8efaca5d2bc0d6480851526 *ph92-05-02d2t02.shn
132b7803fb493977ce3c4f4df44224e2 *ph92-05-02d2t03.shn
138dd39e4e265640a35e8b68789c63ff *ph92-05-02d2t04.shn
08c9e2fe7accc925a9d1deb53ecdb12a *ph92-05-02d2t05.shn
19a9797f575e48c3d665c87153884a31 *ph92-05-02d2t06.shn
40757d45bf7af674f9ad8f3c2f11b717 *ph92-05-02d2t07.shn
306f3d0d4525b2d1d1ce8f17fa4eebcd *ph92-05-02d1t01.shn
da907b1b5c76ab6c22ccf965a4df021b *ph92-05-02d3t01.shn
835447fb4c5304f2150a11fa2dcbcfb2 *ph92-05-02d3t02.shn
89345200a64b928213562ad2c548c0ca *ph92-05-02d3t03.shn
d9ffe649a97ae19f40c9e2ca18c7a598 *ph92-05-02d3t04.shn
8255359c6bbbc81dabd2f7a21ab77328 *ph92-05-02d3t05.shn

Comments
Add Comment
Other Sources (comments)
FOB Neumann RSM191A-S (150... (3) Unknown Mic's -> Cass 2->... (0) flac16, 48kHz;... (0)
Date User Comment