Browse Collections Artists Sources   Search Dates

Add Show    List Management    Help


Phish 03/22/93
Crest Theater, Sacramento, CA
Comments Add Comment    Source Collectors    Add to Collection    Add to Want List    History
Source # 138657 Other Sources
Entered by Matt Vernon
Checksums shn-st5 , shn-md5 , ffp
Disc Counts 0 / 0
Media Size
Date Circulated
Date Added

06/25/2017
Source Summary flc16 44.1khz SBD>C(0)>DAT>CDR>EAC>SHN > [flac(8) by mvernon ~ 6/25/17 see notes] DAE and SHN conversion done by Chris Brand ([email protected]) on 6/3/00 
Source Information - Download Text | Download Zip
03-22-93 Crest Theater, Sacramento, CA
Source: SBD>C(0)>DAT>CDR>EAC>SHN > [flac(8) by mvernon ~ 6/25/17 see notes]
DAE and SHN conversion done by Chris Brand ([email protected]) on 6/3/00


1: Chalk Dust Torture, Guelah Papyrus, Uncle Pen, Stash, Bouncing Around the Room, Rift, Weigh, Reba, Sparkle, David Bowie

2: Golgi Apparatus, It's Ice-> Lizards-> Tela-> Wilson-> AC/DC Bag-> Colonel Forbin's Ascent-> Fly Famous Mockingbird-> The Sloth-> McGrupp and the Watchful Hosemasters, Mike's Song-> I Am Hydrogen-> Weekapaug Groove

E: Amazing Grace, Fire

Set 2 contained complete Gamehendge narration.



Disc 1 (all of Set 1)

01 Chalk Dust Torture
02 Guelah Papyrus
03 Uncle Pen
04 Stash
05 Bouncing Around the Room
06 Rift
07 Weigh
08 Reba
09 Sparkle
10 David Bowie

Disc 2 (Set 2-)

01 Golgi Apparatus
02 It's Ice->
03 Gamehendge Narration->
04 Lizards->
05 Gamehendge Narration->
06 Tela->
07 Gamehendge Narration->
08 Wilson->
09 Gamehendge Narration->
10 AC/DC Bag->
11 Gamehendge Narration->
12 Colonel Forbin's Ascent->
13 Gamehendge Narration->
14 Fly Famous Mockingbird->
15 Gamehendge Narration->
16 The Sloth->
17 Gamehendge Narration->
18 McGrupp and the Watchful Hosemasters

Disc 3 (Set 2 continued + Encore)

01 Mike's Song
02 I Am Hydrogen
03 Weekapaug Groove

Encore

05 Amazing grace
06 Fire

Notes:

This source was circulating after etree’s data base was built but was never added as a source. This source was supplied to mvernon by jud howell ~ May, 2017 as part of the search for sources made at that time.

The source was originally in shn. The shn files were converted to flac directly using Xact’s encoding function at flac level 8.

The original shn file md5 and st5 are also included. this will allow others that may have had this heretofore unlisted source to verify if it matches.

However, as of June 2017, the preferred file format is flac. Note that the wav files will be the same regardless as long as the files match either the st5 or ffp checksums provided.

    length     expanded size    cdr  WAVE problems  fmt   ratio  filename
     6:11.30       65515004 B   ---   --   ---xx   flac  0.6409  ph93-03-22d1t01.flac
     5:23.05       56989004 B   ---   --   ---xx   flac  0.5794  ph93-03-22d1t02.flac
     4:03.34       42945212 B   ---   --   ---xx   flac  0.5712  ph93-03-22d1t03.flac
    10:16.67      108820028 B   ---   --   ---xx   flac  0.6061  ph93-03-22d1t04.flac
     3:40.54       38935052 B   ---   --   ---xx   flac  0.5820  ph93-03-22d1t05.flac
     6:02.03       63863900 B   ---   --   ---xx   flac  0.5978  ph93-03-22d1t06.flac
     5:02.15       53308124 B   ---   --   ---xx   flac  0.5873  ph93-03-22d1t07.flac
    14:59.03      158590700 B   ---   --   ---xx   flac  0.5624  ph93-03-22d1t08.flac
     3:57.00       41806844 B   ---   --   ---xx   flac  0.5952  ph93-03-22d1t09.flac
    14:02.60      148669964 B   ---   --   ---xx   flac  0.6001  ph93-03-22d1t10.flac
     4:41.48       49681340 B   ---   --   ---xx   flac  0.6029  ph93-03-22d2t01.flac
     5:10.71       54851036 B   ---   --   ---xx   flac  0.5973  ph93-03-22d2t02.flac
     3:27.28       36580700 B   ---   --   ---xx   flac  0.4500  ph93-03-22d2t03.flac
     9:43.33      102918860 B   ---   --   ---xx   flac  0.5670  ph93-03-22d2t04.flac
     2:04.15       21908924 B   ---   --   ---xx   flac  0.5040  ph93-03-22d2t05.flac
     6:42.00       70912844 B   ---   --   ---xx   flac  0.5514  ph93-03-22d2t06.flac
     1:46.51       18818396 B   ---   --   ---xx   flac  0.4611  ph93-03-22d2t07.flac
     3:58.21       42032636 B   ---   --   ---xx   flac  0.6263  ph93-03-22d2t08.flac
     1:40.45       17745884 B   ---   --   ---xx   flac  0.5160  ph93-03-22d2t09.flac
     5:50.35       61822364 B   ---   --   ---xx   flac  0.6426  ph93-03-22d2t10.flac
     0:57.35       10137164 B   ---   --   ---xx   flac  0.4413  ph93-03-22d2t11.flac
     5:26.41       57602876 B   ---   --   ---xx   flac  0.6250  ph93-03-22d2t12.flac
     1:09.50       12289244 B   ---   --   ---xx   flac  0.5657  ph93-03-22d2t13.flac
     6:08.12       64943468 B   ---   --   ---xx   flac  0.5751  ph93-03-22d2t14.flac
     0:58.05       10243004 B   ---   --   ---xx   flac  0.4375  ph93-03-22d2t15.flac
     3:42.52       39283148 B   ---   --   ---xx   flac  0.6650  ph93-03-22d2t16.flac
     0:33.72        5990588 B   ---   --   ---xx   flac  0.4659  ph93-03-22d2t17.flac
     9:37.07      101799308 B   ---   --   ---xx   flac  0.5469  ph93-03-22d2t18.flac
     8:05.42       85652828 B   ---   --   ---xx   flac  0.6443  ph93-03-22d3t01.flac
     3:02.72       32274188 B   ---   --   ---xx   flac  0.5303  ph93-03-22d3t02.flac
     8:22.10       88576364 B   ---   --   ---xx   flac  0.6148  ph93-03-22d3t03.flac
     2:07.64       22553372 B   ---   --   ---xx   flac  0.3656  ph93-03-22d3t04.flac
     4:37.44       48966332 B   ---   --   ---xx   flac  0.6449  ph93-03-22d3t05.flac
   173:33.74     1837028700 B                            0.5840  (33 files)




Show Checksums
shn-st5
8a377e86bc727261bc123bd12d86f5d7 [shntool] ph93-03-22d1t01.shn
0f532b04d2b2a556d3c3802f2bbcda87 [shntool] ph93-03-22d1t02.shn
6fb7dd7d6c05f622ca1024a57a7bea0d [shntool] ph93-03-22d1t03.shn
f940bf81ea149b68a2ae5145aae53713 [shntool] ph93-03-22d1t04.shn
9a81f58670aa7b046e3a1df2b07257c2 [shntool] ph93-03-22d1t05.shn
3606b7e57481237734401800ec82ce84 [shntool] ph93-03-22d1t06.shn
a12f6935fe71be1f40a82e40ceee1c73 [shntool] ph93-03-22d1t07.shn
e4233fee50561b1d887591ca3ca9486b [shntool] ph93-03-22d1t08.shn
044b7c0720d2006eb8a4f3d0ec41bd8e [shntool] ph93-03-22d1t09.shn
07963c3cd39a1ca62427c51628243351 [shntool] ph93-03-22d1t10.shn
0974ae03cef93b324d4b1c78d372bdde [shntool] ph93-03-22d2t01.shn
e55405cf009f968cc5fb916f8d5a4ac9 [shntool] ph93-03-22d2t02.shn
493ebfda52846aba25c0207f9a406270 [shntool] ph93-03-22d2t03.shn
4dcff2bce8b173e7c60f72a6a1909355 [shntool] ph93-03-22d2t04.shn
6df167678a4bc10afe0e5d49f39d0256 [shntool] ph93-03-22d2t05.shn
668f400d42858d7a66c91e194ddc11bf [shntool] ph93-03-22d2t06.shn
2a60b7d4449356df734d5ea510f82ed9 [shntool] ph93-03-22d2t07.shn
3d5bae8f90ad85355ce5103e61658a4e [shntool] ph93-03-22d2t08.shn
dd5ca3156316b01716a30cf793453bb9 [shntool] ph93-03-22d2t09.shn
09dacb867d7668d4a2f17e801a6b903f [shntool] ph93-03-22d2t10.shn
6805490b4c05632093ffc99f75960785 [shntool] ph93-03-22d2t11.shn
03b091c79aefe66f4054a36360cd843f [shntool] ph93-03-22d2t12.shn
e7a2dcb1df2a979d718bad3eeedeab21 [shntool] ph93-03-22d2t13.shn
6bd2ec494ce2b3b923b86aef2c117fe8 [shntool] ph93-03-22d2t14.shn
1156b005bc1cf8edb98d5e63449efa98 [shntool] ph93-03-22d2t15.shn
f03ccbecda027d46713d89d7ce904601 [shntool] ph93-03-22d2t16.shn
7d11ced0a627affa10453ec5c0b5d58e [shntool] ph93-03-22d2t17.shn
2c0a568aab5cccb8f270cf81e1800253 [shntool] ph93-03-22d2t18.shn
74347d722aefcf43ac77b17d42930d0a [shntool] ph93-03-22d3t01.shn
99b4bc233a6c71d7ad83b0883200770c [shntool] ph93-03-22d3t02.shn
25133346d2f075e22982f36aa0132cb4 [shntool] ph93-03-22d3t03.shn
94cfba8e6c2f8a466775697dc3e6f390 [shntool] ph93-03-22d3t04.shn
7eb49682ea6309229010a2cb050a5c25 [shntool] ph93-03-22d3t05.shn
shn-md5
16434d0b1faf7d55ecb6b2b00f8e5be8 *ph93-03-22d1t01.shn
26f0546db3ddba119ca2ce4d3214a31d *ph93-03-22d1t02.shn
b45a84ffab6fbf0ae11cc108b9f816ea *ph93-03-22d1t03.shn
7d55204d5cabce87303c06259d2562c2 *ph93-03-22d1t04.shn
279f1e4080293367ab7cf6f93d4c7cbb *ph93-03-22d1t05.shn
3584a906a4de00319330585f2a2f59ca *ph93-03-22d1t06.shn
be43f0e3944b1feca30b031edd1e5c58 *ph93-03-22d1t07.shn
53b5f502e80e2f147d8284e1d7c19f4e *ph93-03-22d1t08.shn
714c344a9cddb2575693b8e87e8a3d06 *ph93-03-22d1t09.shn
667e417d511b30278d2f65e3df046719 *ph93-03-22d1t10.shn
3085b61269aad00429b8517ba81fecab *ph93-03-22d2t01.shn
d923d55d83ab31b5fb5c314dc1d76261 *ph93-03-22d2t02.shn
e04d166e00f88187f5ceedf41ef3d943 *ph93-03-22d2t03.shn
62157f11def220d0ba1af84f013d7995 *ph93-03-22d2t04.shn
2e6b7893cc77e1624639553c32f52eb8 *ph93-03-22d2t05.shn
a0b6303efb60454c0772f6b6a9ecb786 *ph93-03-22d2t06.shn
30d4888cddf0feaa25caddbf8d1aff3c *ph93-03-22d2t07.shn
17a71b62766a47bf7267571d3af56a20 *ph93-03-22d2t08.shn
0e0701b8afc799560805c562cc6dd210 *ph93-03-22d2t09.shn
14833fed4a0533ba22f3ba511744bc0d *ph93-03-22d2t10.shn
1f7470dec34e751d75083b69098046fe *ph93-03-22d2t11.shn
0fb40d7369bca4a268ed7993168c8cfd *ph93-03-22d2t12.shn
6a55ba3ee7ff994c625d59ad98a6ac03 *ph93-03-22d2t13.shn
9b79d33a4449fa2b48c6599935a31160 *ph93-03-22d2t14.shn
49f133ff2b800f9678efd1701cf8ce5b *ph93-03-22d2t15.shn
2c47dca21d4bbfc9b56acbee35f2d6fe *ph93-03-22d2t16.shn
63d567bcfb3a4a1ea4277ed488bd8c8e *ph93-03-22d2t17.shn
bf5df7687cc2a22998165f66bf56ec95 *ph93-03-22d2t18.shn
f42387ca12aa2fdb6f6e841e3d5a5651 *ph93-03-22d3t01.shn
169883c5bd88bc70f3d90e4546a6fd6e *ph93-03-22d3t02.shn
e778bebc5b47b89d46f09a5cb062de70 *ph93-03-22d3t03.shn
0fe4d11f68630e984d75f857b3b737db *ph93-03-22d3t04.shn
0dcb52f74a8fc5452bced7b3415f0c68 *ph93-03-22d3t05.shn
ffp
ph93-03-22d1t01.flac:8a377e86bc727261bc123bd12d86f5d7
ph93-03-22d1t02.flac:0f532b04d2b2a556d3c3802f2bbcda87
ph93-03-22d1t03.flac:6fb7dd7d6c05f622ca1024a57a7bea0d
ph93-03-22d1t04.flac:f940bf81ea149b68a2ae5145aae53713
ph93-03-22d1t05.flac:9a81f58670aa7b046e3a1df2b07257c2
ph93-03-22d1t06.flac:3606b7e57481237734401800ec82ce84
ph93-03-22d1t07.flac:a12f6935fe71be1f40a82e40ceee1c73
ph93-03-22d1t08.flac:e4233fee50561b1d887591ca3ca9486b
ph93-03-22d1t09.flac:044b7c0720d2006eb8a4f3d0ec41bd8e
ph93-03-22d1t10.flac:07963c3cd39a1ca62427c51628243351
ph93-03-22d2t01.flac:0974ae03cef93b324d4b1c78d372bdde
ph93-03-22d2t02.flac:e55405cf009f968cc5fb916f8d5a4ac9
ph93-03-22d2t03.flac:493ebfda52846aba25c0207f9a406270
ph93-03-22d2t04.flac:4dcff2bce8b173e7c60f72a6a1909355
ph93-03-22d2t05.flac:6df167678a4bc10afe0e5d49f39d0256
ph93-03-22d2t06.flac:668f400d42858d7a66c91e194ddc11bf
ph93-03-22d2t07.flac:2a60b7d4449356df734d5ea510f82ed9
ph93-03-22d2t08.flac:3d5bae8f90ad85355ce5103e61658a4e
ph93-03-22d2t09.flac:dd5ca3156316b01716a30cf793453bb9
ph93-03-22d2t10.flac:09dacb867d7668d4a2f17e801a6b903f
ph93-03-22d2t11.flac:6805490b4c05632093ffc99f75960785
ph93-03-22d2t12.flac:03b091c79aefe66f4054a36360cd843f
ph93-03-22d2t13.flac:e7a2dcb1df2a979d718bad3eeedeab21
ph93-03-22d2t14.flac:6bd2ec494ce2b3b923b86aef2c117fe8
ph93-03-22d2t15.flac:1156b005bc1cf8edb98d5e63449efa98
ph93-03-22d2t16.flac:f03ccbecda027d46713d89d7ce904601
ph93-03-22d2t17.flac:7d11ced0a627affa10453ec5c0b5d58e
ph93-03-22d2t18.flac:2c0a568aab5cccb8f270cf81e1800253
ph93-03-22d3t01.flac:74347d722aefcf43ac77b17d42930d0a
ph93-03-22d3t02.flac:99b4bc233a6c71d7ad83b0883200770c
ph93-03-22d3t03.flac:25133346d2f075e22982f36aa0132cb4
ph93-03-22d3t04.flac:94cfba8e6c2f8a466775697dc3e6f390
ph93-03-22d3t05.flac:7eb49682ea6309229010a2cb050a5c25

Comments
Add Comment
Other Sources (comments)
set II only; SBD> Cass0> DAT (0) SBD > Cassette Master > DAT... (3) SBD -> master cass -> DAT;... (3) Set 1: Schoeps CMC5/mk4 >... (0) flac16 48kHz SBD;... (0)
Date User Comment