Browse Collections Artists Sources   Search Dates

Add Show    List Management    Help


Phish 11/22/94
Jesse Auditorium, Columbia, MO
Comments Add Comment    Source Collectors    Add to Collection    Add to Want List    History
Source # 138659 Other Sources
Entered by Matt Vernon
Checksums ffp , shn-st5 , shn-md5
Disc Counts 0 / 0
Media Size
Date Circulated
Date Added

06/25/2017
Source Summary flac16 44.1khz source: Shure BG 4.0 transfered: tascam da20 mkII>Delta Dio 2496>soundforge 4.5 (48->44.1 s/w resampling)>cdwav>shn [ > flac(8) by mvernon 6/25/17] transferred by: Brandon [email protected] 
Source Information - Download Text | Download Zip
PHiSH
11-22-94 Jesse Auditorium, University of Missouri, Columbia, MO

source: Shure BG 4.0
transfered: tascam da20 mkII>Delta Dio 2496>soundforge 4.5 (48->44.1 s/w resampling)>cdwav>shn [ > flac(8) by mvernon 6/25/17]
transferred by: Brandon [email protected]

Disc 1:
Set 1:
1.Buried Alive
2.Poor Heart
3.Horn
4.Foam
5.Guyute
6.I Didn't Know
7.Bouncing Around the Room
8.Down With Disease
9.Sweet Adeline

Disc 2:
Set 2:
1.Funky Bitch->JAM->
2.Y-Rushalayim Schel Zahav
3.Cry Baby Cry
4.The Curtain
5.Blackbird
6.Runaway Jim->
7.Big Black Furry Creature From Mars
8.I'm Blue I'm Lonesome
9.Butter Them Biscuits
10.My Long Journey Home

Disc 3:
1.Harry Hood
2.Highway to Hell
3.crowd noise
4.E: Lizards

Notes: Disc 1 and Disc 3 can be combined on one 80 minute disc. Buried alive begins very abrubtly, perhaps a very small amount is missing (<2 sec).

Notes by mvernon 6/25/17

This source was circulating after etree’s data base was built but was never added as a source. This source was supplied to mvernon by jud howell ~ May, 2017 as part of the search for sources made at that time.

The source was originally in shn. The shn files were converted to flac directly using Xact’s encoding function at flac level 8.

The original shn file md5 and st5 are also included. this will allow others that may have had this heretofore unlisted source to verify if it matches.

However, as of June 2017, the preferred file format is flac. Note that the wav files will be the same regardless as long as the files match either the st5 or ffp checksums provided.

    length     expanded size    cdr  WAVE problems  fmt   ratio  filename
     2:38.51       27991196 B   ---   --   ---xx   flac  0.4711  ph94-11-22s1t01.flac
     2:17.26       24227996 B   ---   --   ---xx   flac  0.5056  ph94-11-22s1t02.flac
     3:44.74       39687692 B   ---   --   ---xx   flac  0.5291  ph94-11-22s1t03.flac
    11:57.16      126516476 B   ---   --   ---xx   flac  0.4164  ph94-11-22s1t04.flac
    10:45.48      113890940 B   ---   --   ---xx   flac  0.4768  ph94-11-22s1t05.flac
     3:46.39       39958172 B   ---   --   ---xx   flac  0.4330  ph94-11-22s1t06.flac
     3:41.01       38986796 B   ---   --   ---xx   flac  0.4943  ph94-11-22s1t07.flac
     8:29.44       89891132 B   ---   --   ---xx   flac  0.5266  ph94-11-22s1t08.flac
     1:56.18       20504780 B   ---   --   ---xx   flac  0.3413  ph94-11-22s1t09.flac
    28:57.34      306486812 B   ---   --   ---xx   flac  0.4434  ph94-11-22s2t01.flac
     1:30.28       15941900 B   ---   --   ---xx   flac  0.3511  ph94-11-22s2t02.flac
     4:12.43       44553980 B   ---   --   ---xx   flac  0.5145  ph94-11-22s2t03.flac
     6:04.07       64226108 B   ---   --   ---xx   flac  0.5020  ph94-11-22s2t04.flac
     2:31.28       26702300 B   ---   --   ---xx   flac  0.3429  ph94-11-22s2t05.flac
     6:31.37       69059468 B   ---   --   ---xx   flac  0.5183  ph94-11-22s2t06.flac
     7:30.49       79495292 B   ---   --   ---xx   flac  0.4843  ph94-11-22s2t07.flac
     3:13.38       34134620 B   ---   --   ---xx   flac  0.4305  ph94-11-22s2t08.flac
     3:14.10       34245164 B   ---   --   ---xx   flac  0.4096  ph94-11-22s2t09.flac
     3:57.05       41818604 B   ---   --   ---xx   flac  0.4318  ph94-11-22s2t10.flac
    12:51.53      136129100 B   ---   --   ---xx   flac  0.4685  ph94-11-22s2t11.flac
     3:28.62       36837068 B   ---   --   ---xx   flac  0.5455  ph94-11-22s2t12.flac
     1:12.42       12799628 B   ---   --   ---xx   flac  0.4722  ph94-11-22s2t13.flac
    10:48.23      114361340 B   ---   --   ---xx   flac  0.4708  ph94-11-22s2t14.flac
   145:21.26     1538446564 B                            0.4647  (23 files)





Show Checksums
ffp
ph94-11-22s1t01.flac:7e622c01e8ebc4c8f28c723357bead21
ph94-11-22s1t02.flac:9d76d106af4be2fca1ff593306be9641
ph94-11-22s1t03.flac:bdc45198ebc06fa17a9b829b96559c78
ph94-11-22s1t04.flac:8fcd6f8086329c436f51905166b89035
ph94-11-22s1t05.flac:9efcf574f7e16688a8bab84f481c2841
ph94-11-22s1t06.flac:2bd6ba5db660d257bf2398bcabe88ef0
ph94-11-22s1t07.flac:6e10dfbc7566e0740de609d3fb4bc8d6
ph94-11-22s1t08.flac:f71d2b968708cb41a7562b8d00c07ac3
ph94-11-22s1t09.flac:c746d55afa7355075a029c604dd9a974
ph94-11-22s2t01.flac:cf38c1e5e76b76b1113f39ff0397189f
ph94-11-22s2t02.flac:b6ffbb5d539d39327f0215a7b732b563
ph94-11-22s2t03.flac:ae533dedcbe1abaf343bb5cacf4e15ba
ph94-11-22s2t04.flac:15ac57b1043e9fc1953492a9d9c37328
ph94-11-22s2t05.flac:2a0bbd42edec0db7bdb207102a741ad6
ph94-11-22s2t06.flac:3ce2af604569e4d75fe2e1ec2485e892
ph94-11-22s2t07.flac:1c2b01f749dc5dc45d00dbfe12675c6d
ph94-11-22s2t08.flac:5e5af2341b87fac60a6ece7b8233b2d0
ph94-11-22s2t09.flac:ab91bb08adbde362ab065069df9e90b1
ph94-11-22s2t10.flac:02793500282b933ea2490265ba999d00
ph94-11-22s2t11.flac:58bb0352d901dbf101afe6a5683c9a0e
ph94-11-22s2t12.flac:cb8d8417d068813fc42db74dd79e1845
ph94-11-22s2t13.flac:88b1076f39723de94e0a0ad698960cc3
ph94-11-22s2t14.flac:6bb35790ce5aca9458e79ffa31929fd2
shn-st5
7e622c01e8ebc4c8f28c723357bead21 [shntool] ph94-11-22s1t01.shn
9d76d106af4be2fca1ff593306be9641 [shntool] ph94-11-22s1t02.shn
bdc45198ebc06fa17a9b829b96559c78 [shntool] ph94-11-22s1t03.shn
8fcd6f8086329c436f51905166b89035 [shntool] ph94-11-22s1t04.shn
9efcf574f7e16688a8bab84f481c2841 [shntool] ph94-11-22s1t05.shn
2bd6ba5db660d257bf2398bcabe88ef0 [shntool] ph94-11-22s1t06.shn
6e10dfbc7566e0740de609d3fb4bc8d6 [shntool] ph94-11-22s1t07.shn
f71d2b968708cb41a7562b8d00c07ac3 [shntool] ph94-11-22s1t08.shn
c746d55afa7355075a029c604dd9a974 [shntool] ph94-11-22s1t09.shn
cf38c1e5e76b76b1113f39ff0397189f [shntool] ph94-11-22s2t01.shn
b6ffbb5d539d39327f0215a7b732b563 [shntool] ph94-11-22s2t02.shn
ae533dedcbe1abaf343bb5cacf4e15ba [shntool] ph94-11-22s2t03.shn
15ac57b1043e9fc1953492a9d9c37328 [shntool] ph94-11-22s2t04.shn
2a0bbd42edec0db7bdb207102a741ad6 [shntool] ph94-11-22s2t05.shn
3ce2af604569e4d75fe2e1ec2485e892 [shntool] ph94-11-22s2t06.shn
1c2b01f749dc5dc45d00dbfe12675c6d [shntool] ph94-11-22s2t07.shn
5e5af2341b87fac60a6ece7b8233b2d0 [shntool] ph94-11-22s2t08.shn
ab91bb08adbde362ab065069df9e90b1 [shntool] ph94-11-22s2t09.shn
02793500282b933ea2490265ba999d00 [shntool] ph94-11-22s2t10.shn
58bb0352d901dbf101afe6a5683c9a0e [shntool] ph94-11-22s2t11.shn
cb8d8417d068813fc42db74dd79e1845 [shntool] ph94-11-22s2t12.shn
88b1076f39723de94e0a0ad698960cc3 [shntool] ph94-11-22s2t13.shn
6bb35790ce5aca9458e79ffa31929fd2 [shntool] ph94-11-22s2t14.shn
shn-md5
176f94bca033537030d0ff51e63d3d05 *ph94-11-22s1t01.shn
6d3bf93317744ee69c5eb53241c90cd2 *ph94-11-22s1t02.shn
7f1c87a43ec1130d30cc4cbf54ad6a5f *ph94-11-22s1t03.shn
dc44d95ae4325a5c47794b8a872d3e0c *ph94-11-22s1t04.shn
91fe8084949c06cb722aa6582646bc97 *ph94-11-22s1t05.shn
0c49cb1c177112e23ab0cf7c389df03c *ph94-11-22s1t06.shn
a367d8490cc9deef873fe1878e0c1036 *ph94-11-22s1t07.shn
cdf6bbbb4ecf77f2e10968e7229f7708 *ph94-11-22s1t08.shn
07dd569b2a7bc1455089223afc2433be *ph94-11-22s1t09.shn
2b3dd576ce73c775c1bc39d2d3d51618 *ph94-11-22s2t01.shn
f22e4ba9f72511228ae79ed07df92604 *ph94-11-22s2t02.shn
834b982121e3d765fafc69575fec8171 *ph94-11-22s2t03.shn
317a9aee026cd65af30a4229a8d2348f *ph94-11-22s2t04.shn
6b126650d81b8eefe34ac28e7f16fa01 *ph94-11-22s2t05.shn
a3322f497b7bc9e379cf5084c63d07e4 *ph94-11-22s2t06.shn
dc5e6e97f5d3f928c9bc247b955ba1a8 *ph94-11-22s2t07.shn
07f1f977aaa18c819431764a6dfa586a *ph94-11-22s2t08.shn
4ab8f4a40848f3351c1826c19a6ba580 *ph94-11-22s2t09.shn
fe89ccbe0e7299b83f84d955891ff2f5 *ph94-11-22s2t10.shn
bf18eda97c62ce1fd951144613d6419e *ph94-11-22s2t11.shn
255361e77e7338b3b767bf8edad19aff *ph94-11-22s2t12.shn
c93de5ba8584cccb9aa5d0a8e8c546cb *ph94-11-22s2t13.shn
49502bc2f53c936045eaf321e8d58e9e *ph94-11-22s2t14.shn

Comments
Add Comment
Other Sources (comments)
FOB AKG 460(?) > DAT;... (7) Realistic PZM (12V) >... (0) Set I: Toa's(k1?) > Dat;... (0)
Date User Comment