Browse Collections Artists Sources   Search Dates

Add Show    List Management    Help


Garcia 12/21/79
Keystone Palo Alto, Palo Alto, CA
Comments Add Comment    Source Collectors    Add to Collection    Add to Want List    History
Source # 138677 Other Sources
Entered by Joe Jupille
Checksums Garcia1979-12-21.ffp , Garcia1979-12-21.md5
Disc Counts 0 / 0
Media Size
Uncompressed: 1.1 GB (1184765792 bytes)
Date Circulated
Date Added
06/27/2017
06/27/2017
Source Summary JGB; flac1648; sbd > master reel > dat (48k), provided by Rich Gastwirt; transfer: Dat > Sony PCM-R500 > Sound Devices 744T > wav 16/48, transferred by Charlie Miller; Lineage: wav > iZotope RX6 Advanced > Adobe Audition 1.5 > iZotope Ozone 5 Advanced > CD Wave > TLH > Flac 16, edited and mastered SIRMick June 2017. 
Source Information - Download Text | Download Zip
Jerry Garcia Band
The Keystone
Palo Alto, CA
12/21/1979


Source: sbd > master reel > dat (48k)
              Provided by Rich Gastwirt
Transfer: Dat > Sony PCM-R500 > Sound Devices 744T > wav 16/48
                 Transfered by Charlie Miller
Lineage: wav > iZotope RX6 Advanced > Adobe Audition 1.5 > iZotope Ozone 5 Advanced >
                CD Wave > TLH > Flac 16



Set I

01   Sugaree
02   They Love Each Other
03   Russian Lullaby
04   After Midnight


Set II

01   //How Sweet It Is (To Be Loved By You)
02   Positively 4th Street
03   Deal

encore

04   The Harder They Come




Jerry Garcia - guitar, vocals
John Kahn - bass
Ozzie Ahlers - keyboards
Johnny de Fonseca - drums




Notes:

- Level adjustment made at the start of "Sugaree"
-  The start of "How Sweet It Is" is slightly clipped. This wasn't noticeable on other circulating copes as they have been faded in.
- There is a splice in "The Harder They Come" at about 10:15 which has been smoothed out.



Thanks to Rich and Charlie



edited and mastered
SIRMick
June 2017


shntool output:

    length     expanded size    cdr  WAVE problems  fmt   ratio  filename
    16:41.000     192192044 B   cxx   --   ---xx   flac  0.4963  jgb1979-12-21s1t01.flac
     7:24.747      85391404 B   cxx   --   ---xx   flac  0.4794  jgb1979-12-21s1t02.flac
    14:11.480     163484204 B   cxx   --   ---xx   flac  0.4545  jgb1979-12-21s1t03.flac
    12:50.253     147888684 B   cxx   --   ---xx   flac  0.5293  jgb1979-12-21s1t04.flac
    10:17.413     118543404 B   cxx   --   ---xx   flac  0.5295  jgb1979-12-21s2t01.flac
    18:00.440     207444524 B   cxx   --   ---xx   flac  0.5233  jgb1979-12-21s2t02.flac
     8:52.120     102167084 B   cxx   --   ---xx   flac  0.5215  jgb1979-12-21s2t03.flac
    14:33.200     167654444 B   cxx   --   ---xx   flac  0.5263  jgb1979-12-21s2t04.flac
   102:50.653    1184765792 B                            0.5079  (8 files)

Show Checksums
Garcia1979-12-21.ffp
jgb1979-12-21s1t01.flac:d35d4d1b82129242fc34b061ebfb90fe
jgb1979-12-21s1t02.flac:6c16488ca5742e16565c7f6dc038b1d0
jgb1979-12-21s1t03.flac:415e422529113372cbb5c7d551a3efff
jgb1979-12-21s1t04.flac:0965d6de7a7379b2a36adb9b969cee9e
jgb1979-12-21s2t01.flac:f44ccbd9a1d0f24250da4cb924486c74
jgb1979-12-21s2t02.flac:975bf24bd931a0adb14d2222f3c6ec2a
jgb1979-12-21s2t03.flac:cc32cbdd2ca4f867bd40f508c550a00b
jgb1979-12-21s2t04.flac:fb9501157472eaf742bfa928617d4bac
Garcia1979-12-21.md5
971e55f11834b3a16ac300c106f8a2c1 *jgb1979-12-21s1t01.flac
8d77bab245bf53a5e27072732e6ad8e7 *jgb1979-12-21s1t02.flac
a9f031ee0ad498fc27709536d209c536 *jgb1979-12-21s1t03.flac
fe90a64042ac99e51995df08db32e240 *jgb1979-12-21s1t04.flac
018ae78e628a65b46e2f163381ebc844 *jgb1979-12-21s2t01.flac
f762f8d73accdbc16b7e04a20add35f7 *jgb1979-12-21s2t02.flac
367b8274b644503cc8113061ebeafcaa *jgb1979-12-21s2t03.flac
a3a6fc7b890973008b7c79b82c63e66d *jgb1979-12-21s2t04.flac

Comments
Add Comment
Other Sources (comments)
Jerry Garcia Band: SBD:MR>... (2) Jerry Garcia Band: MSR >... (0) Jerry Garcia Band:... (0) "Treatment" of SHNID 4434... (0) "Treatment" of SHNID 4434... (0)
Date User Comment