Browse Collections Artists Sources   Search Dates

Add Show    List Management    Help


Grateful Dead 06/26/94
Sam Boyd Silver Bowl, Las Vegas, NV
Comments Add Comment    Source Collectors    Add to Collection    Add to Want List    History
Source # 138699 Other Sources
Entered by Matt Vernon
Checksums ffp , flac-md5
Disc Counts 0 / 0
Media Size Compressed: 1 GB (1076783494 bytes)
Uncompressed: 1.83 GB (1959597904 bytes)
Date Circulated
Date Added
06/30/2017
06/30/2017
Source Summary flac16; Recording Info: SBD > Dat (44.1k); Transfer Info: Dat (Sony PCM-R500) > Sound Devices 744T > Samplitude Pro X3 Suite > FLAC; All Transfers and Mastering By Charlie Miller 
  Archive
Source Information - Download Text | Download Zip
Grateful Dead - June 26, 1994
Sam Boyd Silver Bowl - Las Vegas, NV

Recording Info:
SBD > Dat (44.1k)

Transfer Info:
Dat (Sony PCM-R500) > Sound Devices 744T > Samplitude Pro X3 Suite > FLAC
(3 Discs Audio / 1 DVD FLAC)

All Transfers and Mastering By Charlie Miller
[email protected]
June 29, 2017

Patch Info:
Schoeps CMC5/MK4 > Dat (shnid=106225) supplies:
Morning Dew (11:14 - 11:42)

Set 1:
01 - Tuning
02 - Hell In A Bucket
03 - Peggy-O
04 - New Minglewood Blues
05 - Ramble On Rose
06 - El Paso
07 - So Many Roads
08 - Just Like Tom Thumb's Blues
09 - The Music Never Stopped

Set 2:
10 - Victim Or The Crime >
11 - Eyes Of The World
12 - Box Of Rain
13 - Saint Of Circumstance >
14 - Terrapin Station >
15 - Drums >
16 - Space >
17 - The Wheel >
18 - All Along The Watchtower >
19 - Morning Dew

Encore:
20 - U.S. Blues


SHNTOOL OUTPUT:
    length     expanded size    cdr  WAVE problems  fmt   ratio  filename
     1:13.16       12914876 B   ---   --   ---xx   flac  0.3981  01 Tuning.flac
     7:16.46       77018636 B   ---   --   ---xx   flac  0.5697  02 Hell In A Bucket.flac
     6:28.42       68542028 B   ---   --   ---xx   flac  0.5492  03 Peggy-O.flac
     8:06.29       85798652 B   ---   --   ---xx   flac  0.5731  04 New Minglewood Blues.flac
     9:04.21       96011036 B   ---   --   ---xx   flac  0.5461  05 Ramble On Rose.flac
     6:59.59       74050412 B   ---   --   ---xx   flac  0.5434  06 El Paso.flac
     8:25.13       89112620 B   ---   --   ---xx   flac  0.5624  07 So Many Roads.flac
     4:59.59       52882412 B   ---   --   ---xx   flac  0.5812  08 Just Like Tom Thumb's Blues.flac
     9:24.65       99642524 B   ---   --   ---xx   flac  0.5935  09 The Music Never Stopped.flac
    10:52.16      115050476 B   ---   --   ---xx   flac  0.5918  10 Victim Or The Crime.flac
    18:29.52      195749948 B   ---   --   ---xx   flac  0.5673  11 Eyes Of The World.flac
     5:19.37       56358668 B   ---   --   ---xx   flac  0.5941  12 Box Of Rain.flac
     7:35.01       80264396 B   ---   --   ---xx   flac  0.5908  13 Saint Of Circumstance.flac
    23:16.20      246301484 B   ---   --   ---xx   flac  0.5670  14 Terrapin Station.flac
    19:44.39      208949372 B   ---   --   ---xx   flac  0.4498  15 Drums.flac
    10:03.13      106399820 B   ---   --   ---xx   flac  0.4006  16 Space.flac
     4:24.20       46616684 B   ---   --   ---xx   flac  0.5896  17 The Wheel.flac
     6:30.68       68955980 B   ---   --   ---xx   flac  0.6044  18 All Along The Watchtower.flac
    11:42.06      123846956 B   ---   --   ---xx   flac  0.5614  19 Morning Dew.flac
     5:12.40       55130924 B   ---   --   ---xx   flac  0.6038  20 US Blues.flac
   185:08.62     1959597904 B                            0.5495  (20 files)


Show Checksums
ffp
01 Tuning.flac:cdeee7e5bf4729e30b49b5ec19d51c74
02 Hell In A Bucket.flac:0cd22de0f6a1a16b8cb6e8a35db1f761
03 Peggy-O.flac:ca9fe2cd1d752f4b3ab9494814b3dd1b
04 New Minglewood Blues.flac:500655a2e1e57ae68a7d43cbf0a20f4e
05 Ramble On Rose.flac:db49e1576b51ca2eb9a15c83c00154af
06 El Paso.flac:5e8dcf8911dc04218c1612ead1b3fe57
07 So Many Roads.flac:5f12f8d9dc0b19239737cb4dc20c7c3e
08 Just Like Tom Thumb's Blues.flac:92fbf654700579ca9443c76c8e3bd766
09 The Music Never Stopped.flac:7da43ce9545172ac1c86130d10c1efde
10 Victim Or The Crime.flac:c2b7a5d67fc4b0ab30981b4c3096bf98
11 Eyes Of The World.flac:0a4548553b78da9e94c1b3683d3db86f
12 Box Of Rain.flac:32234c47704357d6246318a5372c75d8
13 Saint Of Circumstance.flac:fab335db8f31e7a387f026a4c04a6535
14 Terrapin Station.flac:bfc5ad34038c1a7719ce0280319e3b8d
15 Drums.flac:b0ac160d6769bfe36e13396961772858
16 Space.flac:dbca4ede778c8c7fd1809b64dc6abf06
17 The Wheel.flac:28c391c59cab4784e0c9076b893e04c9
18 All Along The Watchtower.flac:bbbd9b136dff422584131fc2f68478e8
19 Morning Dew.flac:a4720d440e6713f0299e40257dab15f0
20 US Blues.flac:bf623a154d19e84cd98226eb70fd3033
flac-md5
6f3997fdc353b9a639456e28320e766e *01 Tuning.flac
cd2759d9f0a71116b99d61f638ff9d31 *02 Hell In A Bucket.flac
a96f7232d6f5d4b7b30b801a87e3a1a9 *03 Peggy-O.flac
9a6dae3dc948d30104326f7966cf9284 *04 New Minglewood Blues.flac
5a16dd9416675159ad9765e503f9a420 *05 Ramble On Rose.flac
6800ddc3d4b622c76bf5ae8989a00484 *06 El Paso.flac
f78e33e19589d00871694b1c393dc950 *07 So Many Roads.flac
2d26d2bd4c25bba31921dedcae40ba8f *08 Just Like Tom Thumb's Blues.flac
cdee13f5b31e0520f4253e85657b8601 *09 The Music Never Stopped.flac
71a371ce4ad66b11295405f9e873f68c *10 Victim Or The Crime.flac
239f70e5f8accfd2b52f2658d6e5ef80 *11 Eyes Of The World.flac
4efafb6840ff1d6cf0f50329d59e0663 *12 Box Of Rain.flac
89ea51c40bf08ba43a912a0ed75fcfab *13 Saint Of Circumstance.flac
bf5cefe57d14db1046ae449a36d4cf85 *14 Terrapin Station.flac
6523f673b799f76304bd2236eb0cfb87 *15 Drums.flac
479ca3c4a171a60f69f39baaf14fe36a *16 Space.flac
8b8e624cf2cf60357f9402b8bf9c5e3e *17 The Wheel.flac
10d6d8433c944f7dcb874ebd8171990f *18 All Along The Watchtower.flac
978d9eee6be5a4487f977ecb66ddd8a2 *19 Morning Dew.flac
29c37fd2940d6c25cc2a24ad54588ca8 *20 US Blues.flac

Comments
Add Comment
Other Sources (comments)
Source: SBD > CASSETTE >... (1) flac16; Encore only,... (0) flac16; Schoeps CMC5... (0)
Date User Comment