Browse Collections Artists Sources   Search Dates

Add Show    List Management    Help


Phish 05/04/90
Colonial Theater, Keene, NH
Comments Add Comment    Source Collectors    Add to Collection    Add to Want List    History
Source # 138705 Other Sources
Entered by Matt Vernon
Checksums ffp
Disc Counts 0 / 0
Media Size
Date Circulated
Date Added

07/01/2017
Source Summary flac24 48khz SOURCE: SBD > Nak CR-3A TRANSFER: SBD MCass (Maxell XLII-S 90 min) > Sony TC-WE805S > Art DI/O (48Khz, Input gain +~11dB, No "Tube Warmth") > Delta DIO 2496 > WaveLab v4.0c > WAV (@24/48) > FLAC (24-bit, v1.1.0) MASTERING: 24bit FLAC > Wavelab > 24bit FLAC NO tracking/editing/alterations performed before archiving to 24-bit FLAC except to trim silence from the ends. Transfer>24bit FLAC files by Weave - [email protected] on 10/4/2003 Mastering>24bit FLAC by Marmar - [email protected] 4/5/2017 
Source Information - Download Text | Download Zip
Phish
Colonial Theater
Keene, NH
05/04/1990

SOURCE: SBD > Nak CR-3A
TRANSFER: SBD MCass (Maxell XLII-S 90 min) > Sony TC-WE805S > Art DI/O (48Khz, Input gain +~11dB, No "Tube Warmth") >
Delta DIO 2496 > WaveLab v4.0c > WAV (@24/48) > FLAC (24-bit, v1.1.0)
MASTERING: 24bit FLAC > Wavelab > 24bit FLAC
NO tracking/editing/alterations performed before archiving to 24-bit FLAC except to trim silence from the ends.

Transfer>24bit FLAC files by Weave - [email protected] on 10/4/2003
Mastering>24bit FLAC by Marmar - [email protected] 4/5/2017

Set 1:
01. Whipping Post
02. Sweet Adeline
03. T.M.W.S.I.Y. >
04. Avenu Malkenu >
05. Boucin Around the Room
06. Possum
07. Reba
08. My Sweet One
09. You Enjoy Myself
10. Lizards

Set 2:
01. Runaway Jim
02. Sloth
03. Uncle Pen
04. Tweezer
05. Bathtub Gin
06. Oh Kee Pah >
07. Mike's Song >
08. //I Am Hydrogen>
09 .Weekapaug Groove
10. Caravan
11. If I only Had a Brain
12. Highway to Hell
13. Run Like an Antelope
Encore:
14. Contact

Notes
Tape flips were cross faded.
The tape cover for cassette 1 lists Contact as the start of Set 2 and the tape cover for Set 2 lists Anelope as the Encore. The taper sometimes put the Encore at the end of Cassette 1 if space was running low on Cassette 2. However, he also started Set 2 on cassette 1 if there was still plenty of room. Listening to the tapes, it is clear that Contact is the Encore and Antelope ends the 2nd set.

    length     expanded size    cdr  WAVE problems  fmt   ratio  filename
     9:36.167     165935996 B   cxx   --   ---xx   flac  0.7203  Phish - 1990-05-04.set1(01).flac
     2:39.238      45860516 B   cxx   --   ---xx   flac  0.6819  Phish - 1990-05-04.set1(02).flac
     3:15.755      56377484 B   cxx   --   ---xx   flac  0.6822  Phish - 1990-05-04.set1(03).flac
     3:09.226      54497060 B   cxx   --   ---xx   flac  0.7182  Phish - 1990-05-04.set1(04).flac
     3:56.045      67981076 B   cxx   --   ---xx   flac  0.7127  Phish - 1990-05-04.set1(05).flac
     9:41.654     167516540 B   cxx   --   ---xx   flac  0.7203  Phish - 1990-05-04.set1(06).flac
    11:58.891     207040724 B   cxx   --   ---xx   flac  0.7180  Phish - 1990-05-04.set1(07).flac
     2:15.130      38917412 B   cxx   --   ---xx   flac  0.7140  Phish - 1990-05-04.set1(08).flac
    16:31.576     285574004 B   cxx   --   ---xx   flac  0.7162  Phish - 1990-05-04.set1(09).flac
     9:31.181     164500100 B   cxx   --   ---xx   flac  0.7151  Phish - 1990-05-04.set1(10).flac
     6:42.523     115926596 B   cxx   --   ---xx   flac  0.7176  Phish - 1990-05-04.set2(01).flac
     3:46.809      65320964 B   cxx   --   ---xx   flac  0.7288  Phish - 1990-05-04.set2(02).flac
     4:12.668      72768572 B   cxx   --   ---xx   flac  0.7080  Phish - 1990-05-04.set2(03).flac
     9:26.893     163265300 B   cxx   --   ---xx   flac  0.7189  Phish - 1990-05-04.set2(04).flac
     7:02.723     121744268 B   cxx   --   ---xx   flac  0.7095  Phish - 1990-05-04.set2(05).flac
     1:42.189      29430620 B   cxx   --   ---xx   flac  0.7061  Phish - 1990-05-04.set2(06).flac
     7:18.881     126397700 B   cxx   --   ---xx   flac  0.7228  Phish - 1990-05-04.set2(07).flac
     2:21.818      40843700 B   cxx   --   ---xx   flac  0.7010  Phish - 1990-05-04.set2(08).flac
     6:38.113     114656516 B   cxx   --   ---xx   flac  0.7270  Phish - 1990-05-04.set2(09).flac
     8:04.610     139567724 B   cxx   --   ---xx   flac  0.6960  Phish - 1990-05-04.set2(10).flac
     3:28.127      59940764 B   cxx   --   ---xx   flac  0.6967  Phish - 1990-05-04.set2(11).flac
     3:45.278      64879964 B   cxx   --   ---xx   flac  0.7301  Phish - 1990-05-04.set2(12).flac
    10:20.720     178767332 B   cxx   --   ---xx   flac  0.7106  Phish - 1990-05-04.set2(13).flac
     6:30.187     112373900 B   cxx   --   ---xx   flac  0.7016  Phish - 1990-05-04.set2(14).flac
   153:56.402    2660084832 B                            0.7137  (24 files)



Show Checksums
ffp
Phish - 1990-05-04.set1(01).flac:eb56234e81a4b2ae96b3b17bec7c39f9
Phish - 1990-05-04.set1(02).flac:b49513d548fd94ec89f3dede0224c115
Phish - 1990-05-04.set1(03).flac:5eb1ce9e357d23aa93a29fbd0eb6630a
Phish - 1990-05-04.set1(04).flac:2a2ee92d5364ddaefeb8934b99a288b3
Phish - 1990-05-04.set1(05).flac:1d42b4b3e64341bb9a88dc6a248284b7
Phish - 1990-05-04.set1(06).flac:9394f545863a9014409de1824ec04fd3
Phish - 1990-05-04.set1(07).flac:8f6eb6abb3200e72177755ea26a17a17
Phish - 1990-05-04.set1(08).flac:3fcd5445e7497138beeb4ad6b698154f
Phish - 1990-05-04.set1(09).flac:7262d1a1bf2dde1abc5c38ad240d023b
Phish - 1990-05-04.set1(10).flac:2ae38fb5b2fb1fd05c05d887a81100dc
Phish - 1990-05-04.set2(01).flac:a0efedbd9b4b74c82f48d19951eb1307
Phish - 1990-05-04.set2(02).flac:6421ad82d6fc0758ffd1bb34b4d7de79
Phish - 1990-05-04.set2(03).flac:fc56b70fc230789844c44efbf8167683
Phish - 1990-05-04.set2(04).flac:25def1e385709bd0fec61429f20ec4bb
Phish - 1990-05-04.set2(05).flac:bae04c2668f7af1fbdddf9a4e5a76f2e
Phish - 1990-05-04.set2(06).flac:2b6d4616ce77dd2a4445fc848234ef31
Phish - 1990-05-04.set2(07).flac:b8d58964444f5b475a7fa7e9294dc8da
Phish - 1990-05-04.set2(08).flac:b37a46eab0e4bde198fac5e27395ad8f
Phish - 1990-05-04.set2(09).flac:8b89cf7b6d6921f99a48277ff84583d7
Phish - 1990-05-04.set2(10).flac:242197f02fe4661c18f3992aa5d12496
Phish - 1990-05-04.set2(11).flac:02afe0b8c0483265aa1c9e8df855c5a7
Phish - 1990-05-04.set2(12).flac:4509f207edd3eb8afa64203b8a180407
Phish - 1990-05-04.set2(13).flac:77fb17f12e1decc60c0eca1aeb499ea0
Phish - 1990-05-04.set2(14).flac:6594aaf2a759ab9cb66e08eeb6ee85ed

Comments
Add Comment
Other Sources (comments)
SBD > Cass/1 > AIWA AD-F850... (0) SBD > Nak CR-3A (Maxell... (10) SBD -> Sony WM-D6C (Maxell... (0) flac16 48kHz SBD >... (0)
Date User Comment