Browse Collections Artists Sources   Search Dates

Add Show    List Management    Help


Phish 05/06/90
Toad's Place, New Haven, CT
Comments Add Comment    Source Collectors    Add to Collection    Add to Want List    History
Source # 138706 Other Sources
Entered by Matt Vernon
Checksums ffp
Disc Counts 0 / 0
Media Size
Date Circulated
Date Added

07/01/2017
Source Summary flac24 48khz SOURCE: SBD > D5 TRANSFER: SBD MCass (Maxell XLII-S 90 min)> Sony TC-WE805S > Art DI/O (48Khz, Input gain +12dB, No "Tube Warmth")> Delta DIO 2496> WaveLab v4.0c> WAV (@24/48)> FLAC (24-bit, v1.1.0) NO tracking/editing/alterations performed before archiving to 24-bit FLAC except to trim silence from the ends. MASTERING: 24bit FLAC > Wavelab > 24bit FLAC Transfer>24bit FLAC files by Weave - [email protected] on 10/5/2003 Mastering > 24bit FLAC by Marmar - [email protected] 4/10/2017 
Source Information - Download Text | Download Zip
Phish
Toad's Place
New Haven, CT
05/06/1990

SOURCE: SBD > D5
TRANSFER: SBD MCass (Maxell XLII-S 90 min)> Sony TC-WE805S > Art DI/O (48Khz, Input gain +12dB, No "Tube Warmth")>
Delta DIO 2496> WaveLab v4.0c> WAV (@24/48)> FLAC (24-bit, v1.1.0)
NO tracking/editing/alterations performed before archiving to 24-bit FLAC except to trim silence from the ends.
MASTERING: 24bit FLAC > Wavelab > 24bit FLAC

Transfer>24bit FLAC files by Weave - [email protected] on 10/5/2003
Mastering > 24bit FLAC by Marmar - [email protected] 4/10/2017

Set 1:
01. Possum
02. Bouncing Around the Room
03. Uncle Pen
04. Reba
05. Tweezer
06. Mike's Song >
07. I am Hydrogen >
08. Weekapaug Groove

Set 2:
01. Fee
02. Harry Hood
03. Esther
04. David Bowie
05. HYHU > Terrapin > HYHU
06. Jaegermeister
07. You Enjoy Myself

Notes
Tape flips were cross faded.
Widespread Panic opened.
No Vocal Jam in YEM.
There is a static noise in the Master Cassette during quiet parts. I verified the noise is in the cassette and is not caused by the transfer.


    length     expanded size    cdr  WAVE problems  fmt   ratio  filename
     9:58.804     172455740 B   cxx   --   ---xx   flac  0.7139  Phish - 1990-05-06.set1(1).flac
     3:58.703      68746652 B   cxx   --   ---xx   flac  0.7206  Phish - 1990-05-06.set1(2).flac
     5:04.596      87723764 B   cxx   --   ---xx   flac  0.7138  Phish - 1990-05-06.set1(3).flac
    12:38.018     218309156 B   cxx   --   ---xx   flac  0.7135  Phish - 1990-05-06.set1(4).flac
    10:32.321     182108348 B   cxx   --   ---xx   flac  0.7163  Phish - 1990-05-06.set1(5).flac
     6:40.979     115482068 B   cxx   --   ---xx   flac  0.7290  Phish - 1990-05-06.set1(6).flac
     2:18.413      39862916 B   cxx   --   ---xx   flac  0.7004  Phish - 1990-05-06.set1(7).flac
     5:48.365     100329308 B   cxx   --   ---xx   flac  0.7280  Phish - 1990-05-06.set1(8).flac
     5:42.951      98769932 B   cxx   --   ---xx   flac  0.6998  Phish - 1990-05-06.set2(1).flac
    12:47.071     220916348 B   cxx   --   ---xx   flac  0.7096  Phish - 1990-05-06.set2(2).flac
     9:08.886     158079140 B   cxx   --   ---xx   flac  0.7097  Phish - 1990-05-06.set2(3).flac
    16:09.183     279124820 B   cxx   --   ---xx   flac  0.7119  Phish - 1990-05-06.set2(4).flac
     6:09.840     106513892 B   cxx   --   ---xx   flac  0.6804  Phish - 1990-05-06.set2(5).flac
     2:16.196      39224348 B   cxx   --   ---xx   flac  0.7121  Phish - 1990-05-06.set2(6).flac
    10:58.021     189510092 B   cxx   --   ---xx   flac  0.7106  Phish - 1990-05-06.set2(7).flac
   120:12.347    2077156524 B                            0.7118  (15 files)



Show Checksums
ffp
Phish - 1990-05-06.set1(1).flac:feb9e03fdbf2961d45bff1c7ff7c6b1d
Phish - 1990-05-06.set1(2).flac:7347817be0c7d1b7efe603573830c2e2
Phish - 1990-05-06.set1(3).flac:a17fa9042e6299308f890fab50da7945
Phish - 1990-05-06.set1(4).flac:247e8a06bad1dcd7e1a79aa41cbeb296
Phish - 1990-05-06.set1(5).flac:df19cb55b4a00736a12239be320b84bf
Phish - 1990-05-06.set1(6).flac:f3995f2b6e5a0b59ae0331cefe5b9cf1
Phish - 1990-05-06.set1(7).flac:bb6512aada9deb28ee56d4119d5d7343
Phish - 1990-05-06.set1(8).flac:8e7057ac657ba1e547f4de0dbb128ace
Phish - 1990-05-06.set2(1).flac:6302387e3f67c6d9c7c0b32ffed6f390
Phish - 1990-05-06.set2(2).flac:d6de6983fd2832ec7798102d362275ff
Phish - 1990-05-06.set2(3).flac:2635a125f659c6d50f8a2fd5b10b84c4
Phish - 1990-05-06.set2(4).flac:3a720885151ff7d414bf11be229b9f6b
Phish - 1990-05-06.set2(5).flac:c8a8de6c500ccf2b1991bbd231ac01f5
Phish - 1990-05-06.set2(6).flac:1c55f2d6560a8ada93157a47a6983e40
Phish - 1990-05-06.set2(7).flac:db752358cc3d992762e66d47a06eb589

Comments
Add Comment
Other Sources (comments)
SBD > D5 (Cass/0) > Sony... (2)
Date User Comment