Browse Collections Artists Sources   Search Dates

Add Show    List Management    Help


Phish 10/04/90
Field House, Durham, NH
Comments Add Comment    Source Collectors    Add to Collection    Add to Want List    History
Source # 138707 Other Sources
Entered by Matt Vernon
Checksums ffp
Disc Counts 0 / 0
Media Size
Date Circulated
Date Added

07/01/2017
Source Summary flac24 48khz SOURCE: SBD > D5 TRANSFER: SBD MCass (Maxell MX 90 min)> Sony TC-WE805S > Art DI/O (48Khz, Input gain +~10dB, No "Tube Warmth")>Delta DIO 2496> WaveLab v4.0c> WAV (@24/48)> FLAC (24-bit, v1.1.0) NO tracking/editing/alterations performed before archiving to 24-bit FLAC except to trim silence from the ends. MASTERING: 24bit FLAC > Wavelab > 24bit FLAC Transfer>24bit FLAC files by Weave - [email protected] on 10/26/2003 Mastering>24bit FLAC by Marmar - [email protected] 4/10/2017 
Source Information - Download Text | Download Zip
Phish
Field House
University of New Hampshire
Durham, NH
10/04/1990

SOURCE: SBD > D5
TRANSFER: SBD MCass (Maxell MX 90 min)> Sony TC-WE805S > Art DI/O (48Khz, Input gain +~10dB, No "Tube Warmth")>Delta DIO 2496> WaveLab v4.0c> WAV (@24/48)> FLAC (24-bit, v1.1.0) NO tracking/editing/alterations performed before archiving to 24-bit FLAC except to trim silence from the ends.
MASTERING: 24bit FLAC > Wavelab > 24bit FLAC

Transfer>24bit FLAC files by Weave - [email protected] on 10/26/2003
Mastering>24bit FLAC by Marmar - [email protected] 4/10/2017

Set 1:
01. //Golgi Aparatus
02. The Landlady
03. Esther
04. Possum
05. The Squirming Coil
06. Lizards//
07. Destiny Unbound
08. The Sloth
09. Uncle Pen
10. David Bowie

Set 2:
01. Reba
02. Bouncing Around the Room >
03. Foam
04. Fee
05. Tweezer
06. //Magilla
07. Cavern
08. You Enjoy Myself
09. E:The Divided Sky

Notes
Tape flips were crossfaded.

    length     expanded size    cdr  WAVE problems  fmt   ratio  filename
     2:26.094      42074972 B   cxx   --   ---xx   flac  0.6940  phish1990-10-04.set1(01).flac
     4:40.660      80830052 B   cxx   --   ---xx   flac  0.7027  phish1990-10-04.set1(02).flac
     8:55.043     154092500 B   cxx   --   ---xx   flac  0.6932  phish1990-10-04.set1(03).flac
    10:40.810     184553252 B   cxx   --   ---xx   flac  0.6940  phish1990-10-04.set1(04).flac
     5:32.967      95894612 B   cxx   --   ---xx   flac  0.6939  phish1990-10-04.set1(05).flac
    10:48.111     186655940 B   cxx   --   ---xx   flac  0.6810  phish1990-10-04.set1(06).flac
     6:23.351     110405276 B   cxx   --   ---xx   flac  0.6869  phish1990-10-04.set1(07).flac
     3:50.361      66344084 B   cxx   --   ---xx   flac  0.7044  phish1990-10-04.set1(08).flac
     4:30.296      77845364 B   cxx   --   ---xx   flac  0.6889  phish1990-10-04.set1(09).flac
    14:35.397     252114452 B   cxx   --   ---xx   flac  0.7032  phish1990-10-04.set1(10).flac
    12:14.547     211549508 B   cxx   --   ---xx   flac  0.6781  phish1990-10-04.set2(01).flac
     3:52.750      67032044 B   cxx   --   ---xx   flac  0.6783  phish1990-10-04.set2(02).flac
     9:32.283     164817620 B   cxx   --   ---xx   flac  0.6799  phish1990-10-04.set2(03).flac
     5:20.754      92377196 B   cxx   --   ---xx   flac  0.6758  phish1990-10-04.set2(04).flac
    11:16.788     194914988 B   cxx   --   ---xx   flac  0.6958  phish1990-10-04.set2(05).flac
     5:43.037      98794628 B   cxx   --   ---xx   flac  0.6750  phish1990-10-04.set2(06).flac
     6:04.217     104894540 B   cxx   --   ---xx   flac  0.6968  phish1990-10-04.set2(07).flac
    16:28.673     284737868 B   cxx   --   ---xx   flac  0.6927  phish1990-10-04.set2(08).flac
    12:22.766     213916796 B   cxx   --   ---xx   flac  0.6860  phish1990-10-04.set2(09).flac
   155:18.906    2683845692 B                            0.6896  (19 files)


Show Checksums
ffp
phish1990-10-04.set1(01).flac:5a7176f99b38d65b7e99a3afeb2ca54b
phish1990-10-04.set1(02).flac:628305d38511701db043537b6ef376fe
phish1990-10-04.set1(03).flac:998aa67f09d7c559b591262358a322d1
phish1990-10-04.set1(04).flac:60dd6f4a1dbefb660c64a9f2fa9a7b20
phish1990-10-04.set1(05).flac:82c903618262ce0a68da35155cd2e8cd
phish1990-10-04.set1(06).flac:fdfd49e46f458546282af3e6f06201b0
phish1990-10-04.set1(07).flac:b2fb06c4e545874899a5f26c4f54f4c0
phish1990-10-04.set1(08).flac:f19ee63940623c91d35a3de177286aaa
phish1990-10-04.set1(09).flac:dbcfd8dc1867bbdf94556308fd70b1ec
phish1990-10-04.set1(10).flac:b63b13758a5766080722d5306ec4fea5
phish1990-10-04.set2(01).flac:1908b7f6d5463477f8f91a696a04405a
phish1990-10-04.set2(02).flac:e73deb57604a4a0e985819eb73626611
phish1990-10-04.set2(03).flac:7a3bd23566cfab52928ddff9ad7c8d05
phish1990-10-04.set2(04).flac:d6d3e1c8055fb984502520675d64d428
phish1990-10-04.set2(05).flac:ca4b7259660891021775f0641d73787f
phish1990-10-04.set2(06).flac:230c8a18e7bd51c73663e49bd8f2206b
phish1990-10-04.set2(07).flac:14b395286f538b97d2c7efdf1c4352bb
phish1990-10-04.set2(08).flac:0b81a2c57c8284cc6854087d27b422a3
phish1990-10-04.set2(09).flac:1e193c629a68ef8400c90afae897f1ce

Comments
Add Comment
Other Sources (comments)
SBD > D5 > Cass/0 (Maxell... (2)
Date User Comment