Browse Collections Artists Sources   Search Dates

Add Show    List Management    Help


Phish 11/16/90
Campus Club, Providence, RI
Comments Add Comment    Source Collectors    Add to Collection    Add to Want List    History
Source # 138708 Other Sources
Entered by Matt Vernon
Checksums ffp
Disc Counts 0 / 0
Media Size
Date Circulated
Date Added

07/01/2017
Source Summary flac24 48khz SOURCE: SBD > D5 TRANSFER: SBD MCass (Maxell MX 90 min)> Sony TC-WE805S > Art DI/O (48Khz, Input gain +~10dB, No "Tube Warmth")> Delta DIO 2496> WaveLab v4.0c> WAV (@24/48)> FLAC (24-bit, v1.1.0) NO tracking/editing/alterations performed before archiving to 24-bit FLAC except to trim silence from the ends. MASTERING: 24bit FLAC > Wavelab > 24bit FLAC Transfer>24bit FLAC files by Weave - [email protected] on 11/2/2003 Mastering>24bit FLAC by Marmar - [email protected] on 4/16/2017 
Source Information - Download Text | Download Zip
Phish
Campus Club
Providence, RI
11/16/90

SOURCE: SBD > D5

TRANSFER: SBD MCass (Maxell MX 90 min)> Sony TC-WE805S > Art DI/O (48Khz, Input gain +~10dB, No "Tube Warmth")>
Delta DIO 2496> WaveLab v4.0c> WAV (@24/48)> FLAC (24-bit, v1.1.0) NO tracking/editing/alterations performed before archiving to 24-bit FLAC except to trim silence from the ends.
MASTERING: 24bit FLAC > Wavelab > 24bit FLAC

Transfer>24bit FLAC files by Weave - [email protected] on 11/2/2003
Mastering>24bit FLAC by Marmar - [email protected] on 4/16/2017

Set 1:
01. Suzy Greenberg
02. Buried Alive
03. Foam
04. You Enjoy Myself
05. Magilla//
06. Llama
07. The Divided Sky
08. Golgi Apparatus

Set 2:
01. I Dream of Jeannie Theme/Contact tease/Trey explains the Landlady Dance
02. The Landlady
03. Mike's Song->
04. I Am Hydrogen->
05. Weekapaug Groove (with Flinstones Theme)
06. Lawn Boy
07. Tube
08. Paul and Silas
09. Lizards (with I Dream of Jeannie Theme)
10. Runaway Jim
11. I Didn't Know
12. Possum
13. E: Contact
14. Fire

    length     expanded size    cdr  WAVE problems  fmt   ratio  filename
     6:32.661     113086556 B   cxx   --   ---xx   flac  0.6934  phish1990-11-16.set1(01).flac
     2:41.173      46417940 B   cxx   --   ---xx   flac  0.6912  phish1990-11-16.set1(02).flac
     8:27.187     146069828 B   cxx   --   ---xx   flac  0.6894  phish1990-11-16.set1(03).flac
    16:14.353     280613636 B   cxx   --   ---xx   flac  0.7010  phish1990-11-16.set1(04).flac
     6:20.840     109682036 B   cxx   --   ---xx   flac  0.7133  phish1990-11-16.set1(05).flac
     4:45.143      82121300 B   cxx   --   ---xx   flac  0.7275  phish1990-11-16.set1(06).flac
    13:10.823     227757140 B   cxx   --   ---xx   flac  0.7075  phish1990-11-16.set1(07).flac
     4:58.226      85889204 B   cxx   --   ---xx   flac  0.7140  phish1990-11-16.set1(08).flac
     2:21.316      40699052 B   cxx   --   ---xx   flac  0.6502  phish1990-11-16.set2(01).flac
     4:08.491      71565524 B   cxx   --   ---xx   flac  0.7050  phish1990-11-16.set2(02).flac
     5:56.940     102798908 B   cxx   --   ---xx   flac  0.7077  phish1990-11-16.set2(03).flac
     2:45.338      47617460 B   cxx   --   ---xx   flac  0.6699  phish1990-11-16.set2(04).flac
     6:52.200     118713716 B   cxx   --   ---xx   flac  0.7163  phish1990-11-16.set2(05).flac
     2:28.151      42667676 B   cxx   --   ---xx   flac  0.6698  phish1990-11-16.set2(06).flac
     3:07.094      53883188 B   cxx   --   ---xx   flac  0.7007  phish1990-11-16.set2(07).flac
     3:53.497      67247252 B   cxx   --   ---xx   flac  0.6920  phish1990-11-16.set2(08).flac
    10:31.132     181766132 B   cxx   --   ---xx   flac  0.6829  phish1990-11-16.set2(09).flac
     6:18.023     108870596 B   cxx   --   ---xx   flac  0.7077  phish1990-11-16.set2(10).flac
     3:33.995      61630676 B   cxx   --   ---xx   flac  0.6791  phish1990-11-16.set2(11).flac
    10:19.654     178460396 B   cxx   --   ---xx   flac  0.7097  phish1990-11-16.set2(12).flac
     6:43.025     116071244 B   cxx   --   ---xx   flac  0.6790  phish1990-11-16.set2(13).flac
     4:43.600      81676772 B   cxx   --   ---xx   flac  0.7266  phish1990-11-16.set2(14).flac
   136:52.865    2365306232 B                            0.7000  (22 files)



Show Checksums
ffp
phish1990-11-16.set1(01).flac:5ecf168b420fd7d8050af045d9c9a533
phish1990-11-16.set1(02).flac:c61c9597666167b9075d492466b79e89
phish1990-11-16.set1(03).flac:4d54168785ad4e4fd7462bbe0d60a1f8
phish1990-11-16.set1(04).flac:f11f2e714caa16958c105a3503711ed3
phish1990-11-16.set1(05).flac:9d349cea5b5a8326ccf3da1fbd4f0d33
phish1990-11-16.set1(06).flac:97e93e7ad35cc0e2f1c24ab365f72952
phish1990-11-16.set1(07).flac:aa548230a36a5244915023cabe497ef3
phish1990-11-16.set1(08).flac:b7e43d23db233de5cd31f6f98176d3c1
phish1990-11-16.set2(01).flac:6b14e3bbd163b930fd05ca2f56c63497
phish1990-11-16.set2(02).flac:966dcaf9fd9ee826590c28c5ca10ac98
phish1990-11-16.set2(03).flac:dab20e47d1c84c1e0eb4c64b0a1f2084
phish1990-11-16.set2(04).flac:e5013b2664d75dbbdd92aa25f0edc672
phish1990-11-16.set2(05).flac:1938480fb4a378b1909b33eadb7119de
phish1990-11-16.set2(06).flac:8f3f1ef267f174e183d5f9bdc1ca3dec
phish1990-11-16.set2(07).flac:9a2134af49d882371a66a0b66b54b8fe
phish1990-11-16.set2(08).flac:0bd3e5c4ed4b8a033064d6c3f3453b7a
phish1990-11-16.set2(09).flac:f4369040adb331a64134548d396d3462
phish1990-11-16.set2(10).flac:d094384608a10f67d679867dfdf93c2b
phish1990-11-16.set2(11).flac:12c72a1303c48c4633ee2b8694c7ee97
phish1990-11-16.set2(12).flac:3f4070cf1c0de1d9d5910b472d5fce34
phish1990-11-16.set2(13).flac:37ddf956474c132d461a6c6bc8ab7a64
phish1990-11-16.set2(14).flac:c356c73056d2adae97c4c8af4df724c3

Comments
Add Comment
Other Sources (comments)
SBD > D5 (Cass/0); Cass/0 >... (2)
Date User Comment