Browse Collections Artists Sources   Search Dates

Add Show    List Management    Help


Phish 11/24/90
Capitol Theater, Port Chester, NY
Comments Add Comment    Source Collectors    Add to Collection    Add to Want List    History
Source # 138709 Other Sources
Entered by Matt Vernon
Checksums ffp
Disc Counts 0 / 0
Media Size
Date Circulated
Date Added

07/01/2017
Source Summary flac24 48khz TAPER: John Redmond SOURCE: SBD > D5 TRANSFER: SBD MCass (Maxell XLII-S 90 min)> Sony TC-WE805S > Art DI/O (48Khz, Input gain +~10dB, No "Tube Warmth")> Delta DIO 2496> WaveLab v4.0c> WAV (@24/48)> FLAC (24-bit, v1.1.0) NO tracking/editing/alterations performed before archiving to 24-bit FLAC except to trim silence from the ends. MASTERING: FLAC 24bit > Wavelab > FLAC 24bit Transfer>24bit FLAC files by Weave - [email protected] on 11/3/2003 Mastering>24bit FLAC by Marmar - [email protected] on 4/16/2017 
Source Information - Download Text | Download Zip
Phish
Capitol Theater
Port Chester, NY
11/24/90

TAPER: John Redmond
SOURCE: SBD > D5

TRANSFER: SBD MCass (Maxell XLII-S 90 min)> Sony TC-WE805S > Art DI/O (48Khz, Input gain +~10dB, No "Tube Warmth")>
Delta DIO 2496> WaveLab v4.0c> WAV (@24/48)> FLAC (24-bit, v1.1.0) NO tracking/editing/alterations performed before archiving to 24-bit FLAC except to trim silence from the ends.
MASTERING: FLAC 24bit > Wavelab > FLAC 24bit

Transfer>24bit FLAC files by Weave - [email protected] on 11/3/2003
Mastering>24bit FLAC by Marmar - [email protected] on 4/16/2017

Set 1:
01. //Buried Alive->
02. Possum
03. Foam
04. Mike's Song->
05. I Am Hydrogen->
06. Weekapaug Groove
07. The Squirming Coil//
08. Lizards
09. Oh Kee Pa Ceremony->
10. Suzy Greenberg
11. David Bowie

Set 2:
01. //Llama
02. Bouncing Around the Room
03. Stash
04. Eliza
05. The Landlady
06. Runaway Jim
07. You Enjoy Myself//
08. //HYHU->
09. Love You-> HYHU
10. Good Times Bad Times (cut short)
11. Big Black Furry Creature From Mars
12. E: Lawn Boy
13. The Divided Sky

Notes
Trey stops Good Times Bad Times in the middle and says "That wasn't meant to be so we'll give you this instead", then they bust into BBFCFM.

    length     expanded size    cdr  WAVE problems  fmt   ratio  filename
     2:10.046      37453292 B   cxx   --   ---xx   flac  0.7075  phish1990-11-24.set1(01).flac
     8:36.399     148722884 B   cxx   --   ---xx   flac  0.7251  phish1990-11-24.set1(02).flac
     8:02.687     139013828 B   cxx   --   ---xx   flac  0.7215  phish1990-11-24.set1(03).flac
     6:07.953     105970580 B   cxx   --   ---xx   flac  0.7491  phish1990-11-24.set1(04).flac
     2:40.548      46238012 B   cxx   --   ---xx   flac  0.7053  phish1990-11-24.set1(05).flac
     7:08.934     123532964 B   cxx   --   ---xx   flac  0.7375  phish1990-11-24.set1(06).flac
     5:44.029      99080396 B   cxx   --   ---xx   flac  0.7159  phish1990-11-24.set1(07).flac
     9:50.548     170077868 B   cxx   --   ---xx   flac  0.7311  phish1990-11-24.set1(08).flac
     1:44.958      30227948 B   cxx   --   ---xx   flac  0.7216  phish1990-11-24.set1(09).flac
     5:26.328      93982436 B   cxx   --   ---xx   flac  0.7569  phish1990-11-24.set1(10).flac
    12:12.783     211041476 B   cxx   --   ---xx   flac  0.7401  phish1990-11-24.set1(11).flac
     4:04.265      70348364 B   cxx   --   ---xx   flac  0.7477  phish1990-11-24.set2(01).flac
     3:55.114      67712948 B   cxx   --   ---xx   flac  0.7157  phish1990-11-24.set2(02).flac
     8:54.406     153909044 B   cxx   --   ---xx   flac  0.7362  phish1990-11-24.set2(03).flac
     1:48.523      31254596 B   cxx   --   ---xx   flac  0.6922  phish1990-11-24.set2(04).flac
     3:01.030      52136828 B   cxx   --   ---xx   flac  0.7398  phish1990-11-24.set2(05).flac
     6:26.598     111340196 B   cxx   --   ---xx   flac  0.7360  phish1990-11-24.set2(06).flac
    17:38.228     304769852 B   cxx   --   ---xx   flac  0.7254  phish1990-11-24.set2(07).flac
     1:31.263      26283644 B   cxx   --   ---xx   flac  0.6688  phish1990-11-24.set2(08).flac
     3:14.849      56116412 B   cxx   --   ---xx   flac  0.7085  phish1990-11-24.set2(09).flac
     1:46.881      30781844 B   cxx   --   ---xx   flac  0.7247  phish1990-11-24.set2(10).flac
     5:05.503      87984836 B   cxx   --   ---xx   flac  0.7100  phish1990-11-24.set2(11).flac
     2:24.170      41521076 B   cxx   --   ---xx   flac  0.6744  phish1990-11-24.set2(12).flac
    12:09.377     210060692 B   cxx   --   ---xx   flac  0.7193  phish1990-11-24.set2(13).flac
   141:45.420    2449562016 B                            0.7271  (24 files)


Show Checksums
ffp
phish1990-11-24.set1(01).flac:750412fcd3a109ff565112554439e55b
phish1990-11-24.set1(02).flac:0e7e4abab68a873839f828cb22f5fbd3
phish1990-11-24.set1(03).flac:c251ed96273077fcb7389d6cbbb6bb82
phish1990-11-24.set1(04).flac:da7f72a250c76f851d0bcc28311aee59
phish1990-11-24.set1(05).flac:bfb54f27e99cf1ddfa6db0d178054e2d
phish1990-11-24.set1(06).flac:b23b5600e1feb0af336cfbdc9c11ddd8
phish1990-11-24.set1(07).flac:b2ef52f881ddc7aa3c4d7253e74e06cd
phish1990-11-24.set1(08).flac:7efb8d239e486393d5648f338311ac76
phish1990-11-24.set1(09).flac:aa8fcc76e7ff40d4ef1fa13b374fc866
phish1990-11-24.set1(10).flac:e1d4f20eb65f00c9cb8f5737cfa87be8
phish1990-11-24.set1(11).flac:8b8f2ef042d08bd4d1920ad565e1b255
phish1990-11-24.set2(01).flac:727a5cc8664376c0fd0c63b231afb11f
phish1990-11-24.set2(02).flac:ee5bdb6bb51bb8ee0ea8141a9f602ad9
phish1990-11-24.set2(03).flac:7fb22bbd8720c5d3e974b1c1dc5f31d3
phish1990-11-24.set2(04).flac:f413d6f400d31af854bfb7b537d66dfb
phish1990-11-24.set2(05).flac:aeaa7b71c73d8dd0b199a513f12cecbc
phish1990-11-24.set2(06).flac:f725ce40912f00f5510583ce6ce54e76
phish1990-11-24.set2(07).flac:41c0acca3f9a5697ab508ce7bf68cf11
phish1990-11-24.set2(08).flac:8acd99136d11270a420b72465693b649
phish1990-11-24.set2(09).flac:178ace302af1cbcec4ec7beaf3ddfc4f
phish1990-11-24.set2(10).flac:6c292c9200a9776ad9565b21aad31159
phish1990-11-24.set2(11).flac:5c0b498519a7d6058a223cf43756b714
phish1990-11-24.set2(12).flac:e6525ad9719bb1ce67393d82afa61f87
phish1990-11-24.set2(13).flac:b0a9e4f62cae5dd7a1e22e85f377b65c

Comments
Add Comment
Other Sources (comments)
SBD > D5 (Cass/0); Cass/0 >... (4) flac16; SBD > Sony... (0)
Date User Comment