Browse Collections Artists Sources   Search Dates

Add Show    List Management    Help


Grateful Dead 12/31/90
Oakland-Alameda County Coliseum, Oakland, CA
Comments Add Comment    Source Collectors    Add to Collection    Add to Want List    History
Source # 138723 Other Sources
Entered by Matt Vernon
Checksums ffp , flac-md5
Disc Counts 0 / 0
Media Size Compressed: 2.33 GB (2496812930 bytes)
Uncompressed: 3.86 GB (4142000260 bytes)
Date Circulated
Date Added
07/03/2017
07/03/2017
Source Summary flac24; Soundboard Recording Info: SBD > PCM Master (JVC HR-D570U) > PCM Clone (S-VHS Deck/TDK E-HG); Audience Recording Info: AKG C42 (m/s) > VHS HiFi Master (JVC HR-D570U) > VHS HiFi (S-VHS Deck/TDK E-HG); Soundboard Transfer Info: PCM (Sony SLV-M20HF) > Sony PCM-601ESD (analog outs) > Tascam DA-3000 (DSF 1-bit/5.8 MHz); Audience Transfer Info: VHS HiFi (Sony SLV-M20HF) > Tascam DA-3000 (DSF 1-bit/5.8 MHz); Mastering Info: KORG AudioGate 4 > Samplitude Pro X3 Suite > FLAC/24; Transferred, Mixed and Mastered by Charlie Miller 
  Archive
Source Information - Download Text | Download Zip
Grateful Dead - December 31, 1990
Oakland Coliseum Arena - Oakland, CA

Soundboard Recording Info:
SBD > PCM Master (JVC HR-D570U) > PCM Clone (S-VHS Deck/TDK E-HG)

Audience Recording Info:
AKG C42 (m/s) > VHS HiFi Master (JVC HR-D570U) > VHS HiFi (S-VHS Deck/TDK E-HG)

Soundboard Transfer Info:
PCM (Sony SLV-M20HF) > Sony PCM-601ESD (analog outs) > Tascam DA-3000 (DSF 1-bit/5.8 MHz)

Audience Transfer Info:
VHS HiFi (Sony SLV-M20HF) > Tascam DA-3000 (DSF 1-bit/5.8 MHz)

Mastering Info:
KORG AudioGate 4 > Samplitude Pro X3 Suite > FLAC/24
(1 Disc FLAC)

Transferred, Mixed and Mastered by Charlie Miller
[email protected]
July 2, 2017

Notes:
-- With Branford Marsalis
-- Drums with Hamza El-Din
-- Those are balloons you hear popping
-- I mixed this from a 4-track VHS tape
-- 4-track tape cloned in GD Vault January 8, 1991

Set 2:
01 - Midnight Countdown >
02 - Not Fade Away >
03 - Eyes Of The World >
04 - Dark Star >
05 - Drums >
06 - Space >
07 - The Other One >
08 - Wharf Rat >
09 - Not Fade Away

Encore:
10 - The Weight
11 - Johnny B. Goode


SHNTOOL OUTPUT:
    length     expanded size    cdr  WAVE problems  fmt   ratio  filename
     2:29.941      86366342 B   cxx   --   ---xx   flac  0.6008  01 Midnight Countdown.flac
     7:46.930     268951892 B   cxx   --   ---xx   flac  0.6295  02 Not Fade Away.flac
    15:55.017     550089968 B   cxx   --   ---xx   flac  0.6245  03 Eyes Of The World.flac
    20:36.953     712484858 B   cxx   --   ---xx   flac  0.6034  04 Dark Star.flac
    16:18.456     563590952 B   cxx   --   ---xx   flac  0.5716  05 Drums.flac
     8:04.037     278805374 B   cxx   --   ---xx   flac  0.5718  06 Space.flac
    11:21.469     392526302 B   cxx   --   ---xx   flac  0.6243  07 The Other One.flac
    10:25.686     360395036 B   cxx   --   ---xx   flac  0.6072  08 Wharf Rat.flac
    10:08.625     350568284 B   cxx   --   ---xx   flac  0.5828  09 Not Fade Away.flac
     8:21.648     288949310 B   cxx   --   ---xx   flac  0.6110  10 The Weight.flac
     8:22.208     289271942 B   cxx   --   ---xx   flac  0.6077  11 Johnny B Goode.flac
   119:50.972    4142000260 B                            0.6028  (11 files)


Show Checksums
ffp
01 Midnight Countdown.flac:342a26c3ea2f14be2a768a731f24979e
02 Not Fade Away.flac:d411240bf6cf1241ccb11c6b0990e11f
03 Eyes Of The World.flac:b739a628fa669a190c5ff59df8a7a315
04 Dark Star.flac:53d8f2da81a07bb85197fee2b4e0a2a7
05 Drums.flac:85c29d8134e18e84452a80cadcd32d41
06 Space.flac:bbcb8b9a04a470caed723bd5e16b0f07
07 The Other One.flac:bbb6fc2b25a0dbb1921c9609c7aed087
08 Wharf Rat.flac:a26e29ed4d97e7d92e17319f3e999b82
09 Not Fade Away.flac:03cf4530bbf49284a4c58e13abe4b8cd
10 The Weight.flac:76743e3938a51d5ee8f7fd71793b757c
11 Johnny B Goode.flac:0f538905fa6193f67a2f45288d1c7211
flac-md5
e7492fb0111e20542715db728a0719ab *01 Midnight Countdown.flac
542689c6f45b909de77eaf2b508d844c *02 Not Fade Away.flac
d8b33b4fcac0520d742de820b9879325 *03 Eyes Of The World.flac
475a05f898ae1ca74fc7f2f988ba3e47 *04 Dark Star.flac
cd35bc3d4f38586dbb2b8c7a040c422c *05 Drums.flac
01e59eaf7f41defb4112fbd0e8c60a2b *06 Space.flac
1d91d99ddd1ca06db6b9d48470544b8c *07 The Other One.flac
1923f9443985df83f1e3d5483d1000fd *08 Wharf Rat.flac
7d1c9afdba9fae9c3c73666f653eb418 *09 Not Fade Away.flac
af2ed9d3b7df9b404b75dc263665fd75 *10 The Weight.flac
a3083cb8110ca53913da181c7bbbd6f3 *11 Johnny B Goode.flac

Comments
Add Comment
Other Sources (comments)
Satellite Feed > 1/2" reel... (2) flac16; Pre-FM > DAT... (0) flac16: Recorded by... (0) flac16; timing... (0) flac16; Matrix 3... (0) DTS-Audio-CD 5.1... (0) flac16; FM live... (0) flac16; Source:... (0) flac16/48kHz; Rob... (0) flac16; Soundboard... (0) flac16; Set 2... (0) flac16; Set 2... (0) flac24; Set 2... (0) flac24; Recording... (0) flac16; Recording... (0)
Date User Comment
07/04/2017 charliemiller I forgot to mention that the ambient (m/s) mics had one set as figure 8 and the other was omni.