Browse Collections Artists Sources   Search Dates

Add Show    List Management    Help


Grateful Dead 10/31/83
Marin County Veterans Auditorium, San Rafael, CA
Comments Add Comment    Source Collectors    Add to Collection    Add to Want List    History
Source # 138759 Other Sources
Entered by Matt Vernon
Checksums orig-ffp , ffp , flac-md5
Disc Counts 0 / 0
Media Size Compressed: 1.02 GB (1094492735 bytes)
Uncompressed: 1.57 GB (1685135924 bytes)
Date Circulated
Date Added
07/13/2017
07/13/2017
Source Summary flac16; Source: FOB Audience recording > Nakamichi 700s > ??? > dbx cassette master >dat (44.1k); Provided by Rich Gastwirt; Transfer: Dat > Panasonic SV-3700 > Tascam DA-3000 . wav 16/44.1; Transferred by Charlie Miller; Lineage: wav > Adobe Audition 1.5 > iZotope RX6 Advanced > iZotope Ozone 5 Advanced > CD Wave > TLH > Flac 16; edited and mastered SIRMick July 2017; the original source had "messed up the tracking on the first 6 tracks of set 1"; please don't circulate that version 
  Archive
Source Information - Download Text | Download Zip
Grateful Dead
Marin Veterans Memorial Auditorium
San Rafael, CA
10/31/1983


Source: FOB Audience recording > Nakamichi 700s > ??? >  dbx cassette master >dat (44.1k)
              Provided by Rich Gastwirt
Transfer: Dat > Panasonic SV-3700 > Tascam DA-3000 . wav 16/44.1
                  Transferred by Charlie Miller
Lineage: wav > Adobe Audition 1.5 > iZotope RX6 Advanced > iZotope Ozone 5 Advanced > CD Wave > TLH > Flac 16




Set I

01   Wang Dang Doodle >
02   My Brother Esau
03   Peggy-O
04   Little Red Rooster
05   Brown Eyed Women
06   Lost Sailor >
07   Saint Of Circumstance >
08   Deal


Set II

01   Help On The Way >
02   Slipknot! >
03   Franklin's Tower
04   Estimated Prophet >
05   Eyes Of The World >
06   Drums >
07   Space >
08   Saint Stephen >
09   Throwing Stones >
10   Not Fade Away

encore

11   Revolution



Comments:

Airto Moreira joined the band throughout the First Set and Second Set through Drums.



Thanks To Rich and Charlie



edited and mastered
SIRMick
July 2017


shntool output:

    length     expanded size    cdr  WAVE problems  fmt   ratio  filename
     7:18.32       77338508 B   ---   --   ---xx   flac  0.6675  gd1983-10-31s1t01.flac
     5:30.72       58381388 B   ---   --   ---xx   flac  0.6485  gd1983-10-31s1t02.flac
     7:53.26       83498396 B   ---   --   ---xx   flac  0.6148  gd1983-10-31s1t03.flac
     8:13.39       87056972 B   ---   --   ---xx   flac  0.6527  gd1983-10-31s1t04.flac
     4:59.33       52821260 B   ---   --   ---xx   flac  0.6510  gd1983-10-31s1t05.flac
     6:11.02       65449148 B   ---   --   ---xx   flac  0.6008  gd1983-10-31s1t06.flac
     6:12.56       65752556 B   ---   --   ---xx   flac  0.6462  gd1983-10-31s1t07.flac
     7:09.17       75715628 B   ---   --   ---xx   flac  0.6698  gd1983-10-31s1t08.flac
     3:35.08       37944860 B   ---   --   ---xx   flac  0.6557  gd1983-10-31s2t01.flac
     5:51.40       62010524 B   ---   --   ---xx   flac  0.6682  gd1983-10-31s2t02.flac
    13:10.03      139363100 B   ---   --   ---xx   flac  0.6681  gd1983-10-31s2t03.flac
    11:04.38      117219020 B   ---   --   ---xx   flac  0.6235  gd1983-10-31s2t04.flac
    12:46.38      135211820 B   ---   --   ---xx   flac  0.6660  gd1983-10-31s2t05.flac
    13:39.17      144511628 B   ---   --   ---xx   flac  0.6551  gd1983-10-31s2t06.flac
    15:13.52      161175548 B   ---   --   ---xx   flac  0.6384  gd1983-10-31s2t07.flac
     6:34.66       69656876 B   ---   --   ---xx   flac  0.6641  gd1983-10-31s2t08.flac
     9:26.50       99960044 B   ---   --   ---xx   flac  0.6442  gd1983-10-31s2t09.flac
     9:12.26       97433996 B   ---   --   ---xx   flac  0.6382  gd1983-10-31s2t10.flac
     5:09.54       54634652 B   ---   --   ---xx   flac  0.6766  gd1983-10-31s2t11.flac
   159:12.69     1685135924 B                            0.6495  (19 files)



Show Checksums
orig-ffp
gd1983-10-31s1t01.flac:5612aff0d372432600154de47813e6a4
gd1983-10-31s1t02.flac:8e6699cd23cef8f0ca8d0a48e05727a7
gd1983-10-31s1t03.flac:cebcd48f0eb32fdd6665f54d0906e746
gd1983-10-31s1t04.flac:cc0e8d91f8d4c5d3257a46e827523525
gd1983-10-31s1t05.flac:4ec5aea267f67c53c05cf713931aad6c
gd1983-10-31s1t06.flac:0dbb023376b7a0038d553d6cf9166715
gd1983-10-31s1t07.flac:5c376d3188cad98a1209348d8dc2f137
gd1983-10-31s1t08.flac:f4c3516d7745fc874249b3bb878c205a
gd1983-10-31s2t01.flac:128bf56b945efdffdebee0e76891c704
gd1983-10-31s2t02.flac:02483438251cac64afd25e4e3e17fcd5
gd1983-10-31s2t03.flac:2327d75d512f5cca99087c540036247f
gd1983-10-31s2t04.flac:9d26d778516ed2882d92e901d8490260
gd1983-10-31s2t05.flac:1ca4cd962f57b0b5fdb926b7a9914a2b
gd1983-10-31s2t06.flac:1569ea15066badb9a1c2affa2c0f857d
gd1983-10-31s2t07.flac:59ec4ab6b3a0f8aa62717cb343783959
gd1983-10-31s2t08.flac:fa33741287542cfb4bfd7cf1b0c05090
gd1983-10-31s2t09.flac:45eb099b835f77de32994744fb394f58
gd1983-10-31s2t10.flac:d46ea2922da0936f53d6f85791af9d1d
gd1983-10-31s2t11.flac:c0d3ac7ad0190fb853f24540d51fc9a8
ffp
gd1983-10-31s1t01.flac:3edd4eb38b4dc8a2a76bf29cedbf567a
gd1983-10-31s1t02.flac:f4dfc96ad0d59bd5e6b8dddc4b456b5e
gd1983-10-31s1t03.flac:66c0f28701b307852a27cb6fd900f126
gd1983-10-31s1t04.flac:c860adcbc6bbc8d2f8dda2415a8dc38b
gd1983-10-31s1t05.flac:27cbe0b69b60602fcc6d41b84ce945a4
gd1983-10-31s1t06.flac:0dbb023376b7a0038d553d6cf9166715
gd1983-10-31s1t07.flac:5c376d3188cad98a1209348d8dc2f137
gd1983-10-31s1t08.flac:f4c3516d7745fc874249b3bb878c205a
gd1983-10-31s2t01.flac:128bf56b945efdffdebee0e76891c704
gd1983-10-31s2t02.flac:02483438251cac64afd25e4e3e17fcd5
gd1983-10-31s2t03.flac:2327d75d512f5cca99087c540036247f
gd1983-10-31s2t04.flac:9d26d778516ed2882d92e901d8490260
gd1983-10-31s2t05.flac:1ca4cd962f57b0b5fdb926b7a9914a2b
gd1983-10-31s2t06.flac:1569ea15066badb9a1c2affa2c0f857d
gd1983-10-31s2t07.flac:59ec4ab6b3a0f8aa62717cb343783959
gd1983-10-31s2t08.flac:fa33741287542cfb4bfd7cf1b0c05090
gd1983-10-31s2t09.flac:45eb099b835f77de32994744fb394f58
gd1983-10-31s2t10.flac:d46ea2922da0936f53d6f85791af9d1d
gd1983-10-31s2t11.flac:c0d3ac7ad0190fb853f24540d51fc9a8
flac-md5
2edb456f5ccf43681ddedbd89f60cbec *gd1983-10-31s1t01.flac
3b3129817195d5a50acde97d6c2a9e98 *gd1983-10-31s1t02.flac
c7425e0e8bc1265b7f508be977a8168f *gd1983-10-31s1t03.flac
c64f823db2470bf7f127d9b552ebe1fa *gd1983-10-31s1t04.flac
d4664dc453e077aae94ee028ad67fa59 *gd1983-10-31s1t05.flac
99acc6fb8bbde74b3888bb0bd6eb83c1 *gd1983-10-31s1t06.flac
aa932de73e3a4579223910f1c45a0c2a *gd1983-10-31s1t07.flac
f850210deb0c741269e9a062943e5a15 *gd1983-10-31s1t08.flac
53d61614261440681057a1e357e585b3 *gd1983-10-31s2t01.flac
667734b5472828931a7c498150b5269b *gd1983-10-31s2t02.flac
d441e1a4394ff9c0e42fe595b21014ac *gd1983-10-31s2t03.flac
59862d74f49e232f1a252f11b2f84f27 *gd1983-10-31s2t04.flac
d77e6751bbfe05be5166d497c1c51b4f *gd1983-10-31s2t05.flac
87c88112cfbf8a4f2707166b863bc655 *gd1983-10-31s2t06.flac
2c65e27c70ef1431d47b68c2785ff725 *gd1983-10-31s2t07.flac
be3f74380cb3055e41ada9253800d332 *gd1983-10-31s2t08.flac
87f7a360f48c274b1a1b6b941e340747 *gd1983-10-31s2t09.flac
2b60eb4a03a14715f98b72ab84a2f2b5 *gd1983-10-31s2t10.flac
7957ec4099d1077e6e831d7867634ed5 *gd1983-10-31s2t11.flac

Comments
Add Comment
Other Sources (comments)
Master Soundboard Cassette... (1) SBD> MC> DAT> CDR> EAC>... (1) Source: FOB(Nak... (1) SBD>MC>DAT>CDR>EAC>CDWAV>SH... (3)
Date User Comment
07/14/2017 Wharfrat73 I updated checksums and info file at the seeders request.