Browse Collections Artists Sources   Search Dates

Add Show    List Management    Help


Garcia 03/07/79
Rancho Nicasio, San Rafael, CA
Comments Add Comment    Source Collectors    Add to Collection    Add to Want List    History
Source # 138787 Other Sources
Entered by Joe Jupille
Checksums Garcia1979-03-07.md5 , Garcia1979-03-07.ffp
Disc Counts 0 / 0
Media Size
Uncompressed: 912.58 MB (956905532 bytes)
Date Circulated
Date Added
07/14/2017
07/14/2017
Source Summary Reconstruction; flac16xx; MSR > PCM > DAT (48k), provided by Rich Gastwirt; transfer: DAT > Sony PCM-R500 > Sound Devices 744T > wav 16/48, by Charlie Miller; Lineage: wav > iZotope RX6 Advanced > iZotope Ozone 5 Advanced > CD Wave > TLH > Flac 16; edited and mastered SIRMick July 2017 
Source Information - Download Text | Download Zip
Reconstruction
Rancho Nicasio
Nicasio, CA
03/07/1979


Source: SBD > Master Reel > PCM > DAT (48k)
              Provided by Rich Gastwirt
Transfer: DAT > Sony PCM-R500 > Sound Devices 744T > wav 16/48
                 Transfered by Charlie Miller
Lineage: wav > iZotope RX6 Advanced > iZotope Ozone 5 Advanced > CD Wave > TLH > Flac 16



Set I

01   Intro
02   Lovely Night For Dancing
03   Sama Layuca
04   I Just Want To Stop
05   Another Star
06   Do I Move You
07   Struggling Man
08   Long Train Running


Set II

01   tuning/intro
02   Make It Better
03   Soul Roach
04   What You Won't Do For Love
[MISSING]Welcome To The Basement
[MISSING]Ain't That Lovin' You
[MISSING]Lyinda
[MISSING]It Ain't No Use




Jerry Garcia - guitar, vocals
John Kahn - bass
Merl Saunders - keyboards, vocals
Gaylord Birch - drums
Ron Stallings - saxophone, vocals
Ed Neumeister - trombone



Notes:

- All tracks have been pitch corrected.


Thanks to Rich and Charlie.



edited and mastered
SIRMick
July 2017


shntool output:

    length     expanded size    cdr  WAVE problems  fmt   ratio  filename
     0:05.053        970284 B   cxx   --   ---xx   flac  0.2141  recon1979-03-07s1t01.flac
     0:43.147       8284204 B   cxx   --   ---xx   flac  0.5788  recon1979-03-07s1t02.flac
     8:27.453      97431084 B   cxx   --   ---xx   flac  0.6438  recon1979-03-07s1t03.flac
     7:56.920      91568684 B   cxx   --   ---xx   flac  0.6195  recon1979-03-07s1t04.flac
     4:56.627      56952364 B   cxx   --   ---xx   flac  0.6093  recon1979-03-07s1t05.flac
    10:30.493     121054764 B   cxx   --   ---xx   flac  0.6298  recon1979-03-07s1t06.flac
     9:46.467     112601644 B   cxx   --   ---xx   flac  0.6274  recon1979-03-07s1t07.flac
     5:36.040      64519724 B   cxx   --   ---xx   flac  0.6196  recon1979-03-07s1t08.flac
    11:57.427     137745964 B   cxx   --   ---xx   flac  0.6535  recon1979-03-07s1t09.flac
     1:06.933      12851244 B   cxx   --   ---xx   flac  0.5752  recon1979-03-07s2t01.flac
     6:13.120      71639084 B   cxx   --   ---xx   flac  0.6712  recon1979-03-07s2t02.flac
    10:07.307     116602924 B   cxx   --   ---xx   flac  0.6531  recon1979-03-07s2t03.flac
     5:36.893      64683564 B   cxx   --   ---xx   flac  0.6306  recon1979-03-07s2t04.flac
    83:03.880     956905532 B                            0.6359  (13 files)


Show Checksums
Garcia1979-03-07.md5
e6d5e849c3e96bcb92dd99f122fc036c *recon1979-03-07s1t01.flac
50d39e4ac1fef15128f85c8ec1dd6e42 *recon1979-03-07s1t02.flac
b37379459b44954a756f634ee7655e8b *recon1979-03-07s1t03.flac
4cb60151ccc69294fc6ccad9dccfc16e *recon1979-03-07s1t04.flac
aca5be0b6829b74060c83051c5563adb *recon1979-03-07s1t05.flac
5034be9a010f799cb0904838fc3b1a51 *recon1979-03-07s1t06.flac
82d74e4b13ecd1058f683592c0c75479 *recon1979-03-07s1t07.flac
4270f1fac3e9b43e104103a6b3bf96d7 *recon1979-03-07s1t08.flac
b662b3f6fcd16e527f898b3658e07f75 *recon1979-03-07s1t09.flac
30f84378630b6da24726a6a67f38f9b0 *recon1979-03-07s2t01.flac
f97b5ed553220e4464bdd1ac91c9c405 *recon1979-03-07s2t02.flac
9c5ae7c38e09fba4a1de61bb8b3274bb *recon1979-03-07s2t03.flac
0746f430efa7ac3627d20611152cfac6 *recon1979-03-07s2t04.flac
Garcia1979-03-07.ffp
recon1979-03-07s1t01.flac:35b84adcc06f6e386b1841c5739dd6e5
recon1979-03-07s1t02.flac:9ea64fbfbfdbd805e452859913821c5b
recon1979-03-07s1t03.flac:a51bfbe0e7c56fa63363aaec6b65fcb3
recon1979-03-07s1t04.flac:e68f939df4948fb87eaa9c60e102a8ec
recon1979-03-07s1t05.flac:f2b3212207c3be5bbcb2b0856bff2d74
recon1979-03-07s1t06.flac:ca636391537b74fddeb1e68add212575
recon1979-03-07s1t07.flac:773b44c6b964ee5eb1f687dba0fd3c40
recon1979-03-07s1t08.flac:20e53d47d3b374f8341bb9f7462e4ab0
recon1979-03-07s1t09.flac:6ed47e0e5ec20057e7dacaf3f66703ad
recon1979-03-07s2t01.flac:d12c936a4fd9357c5748ec4aebcf9356
recon1979-03-07s2t02.flac:784560dbbb0310b5858bff8a580a8f8c
recon1979-03-07s2t03.flac:9721896f136167f82cfbae209338bafa
recon1979-03-07s2t04.flac:f5c1dfc50db0ba6535f224356563c0a2

Comments
Add Comment
Other Sources (comments)
Reconstruction: MSR -> PCM... (0) Reconstruction; flac1644;... (1)
Date User Comment