Browse Collections Artists Sources   Search Dates

Add Show    List Management    Help


Grateful Dead 07/06/87
Civic Arena, Pittsburgh, PA
Comments Add Comment    Source Collectors    Add to Collection    Add to Want List    History
Source # 138790 Other Sources
Entered by Matt Vernon
Checksums flac-md5 , ffp
Disc Counts 0 / 0
Media Size Compressed: 929.51 MB (974662383 bytes)
Uncompressed: 1.48 GB (1586916580 bytes)
Date Circulated
Date Added
07/14/2017
07/14/2017
Source Summary flac16; Recording Info: UltraMatrix SBD > PCM Master; Transfer Info: PCM Master (Sony SL-10) > Sony PCM-601ESD > Behringer Ultramatch Pro > Tascam DA-3000 > Samplitude Pro X3 Suite > FLAC/16; All Transfers and Mastering by Charlie Miller 
  Archive
Source Information - Download Text | Download Zip
Grateful Dead - July 6, 1987
Pittsburgh Civic Arena - Pittsburgh, PA

Recording Info:
UltraMatrix SBD > PCM Master

Transfer Info:
PCM Master (Sony SL-10) > Sony PCM-601ESD > Behringer Ultramatch Pro >
Tascam DA-3000 > Samplitude Pro X3 Suite > FLAC/16
(2 Discs Audio / 1 DVD FLAC)

All Transfers and Mastering by Charlie Miller
[email protected]
July 14, 2017

Notes:
-- Iko Iko thru Drums and Johnny B. Goode with The Neville Brothers

Set 1:
01 - Tuning
02 - Feel Like A Stranger >
03 - Franklin's Tower
04 - New Minglewood Blues
05 - Row Jimmy
06 - Mama Tried >
07 - Big River
08 - Far From Me
09 - Stagger Lee
10 - Desolation Row >
11 - Don't Ease Me In

Set 2:
12 - Tuning
13 - Shakedown Street >
14 - Samson And Delilah
15 - Iko Iko >
16 - Banana Boat Song (Day-O) >
17 - Man Smart (Woman Smarter) >
18 - Drums >
19 - Space >
20 - Knockin' On Heaven's Door >
21 - Good Lovin'

Encore:
22 - Encore Break
23 - Johnny B. Goode


SHNTOOL OUTPUT:
    length     expanded size    cdr  WAVE problems  fmt   ratio  filename
     1:56.44       20565932 B   ---   --   ---xx   flac  0.4706  01 Tuning.flac
     7:22.33       78046460 B   ---   --   ---xx   flac  0.6074  02 Feel Like A Stranger.flac
     8:32.60       90457964 B   ---   --   ---xx   flac  0.6287  03 Franklin's Tower.flac
     8:41.51       92024396 B   ---   --   ---xx   flac  0.6392  04 New Minglewood Blues.flac
    10:05.42      106820828 B   ---   --   ---xx   flac  0.6133  05 Row Jimmy.flac
     2:35.72       27511388 B   ---   --   ---xx   flac  0.6466  06 Mama Tried.flac
     7:12.11       76230716 B   ---   --   ---xx   flac  0.6316  07 Big River.flac
     6:08.46       65023436 B   ---   --   ---xx   flac  0.6255  08 Far From Me.flac
     5:09.54       54634652 B   ---   --   ---xx   flac  0.6380  09 Stagger Lee.flac
    10:32.16      111522476 B   ---   --   ---xx   flac  0.6341  10 Desolation Row.flac
     3:44.06       39527756 B   ---   --   ---xx   flac  0.6695  11 Don't Ease Me In.flac
     0:48.71        8634236 B   ---   --   ---xx   flac  0.5434  12 Tuning.flac
    12:14.36      129562316 B   ---   --   ---xx   flac  0.6473  13 Shakedown Street.flac
     8:10.01       86438396 B   ---   --   ---xx   flac  0.6134  14 Samson And Delilah.flac
     6:01.29       63748652 B   ---   --   ---xx   flac  0.6528  15 Iko Iko.flac
     2:22.59       25187612 B   ---   --   ---xx   flac  0.6465  16 Banana Boat Song (Day-O).flac
     6:15.63       66298220 B   ---   --   ---xx   flac  0.6621  17 Man Smart (Woman Smarter).flac
     8:35.12       90874268 B   ---   --   ---xx   flac  0.5190  18 Drums.flac
     8:35.43       90947180 B   ---   --   ---xx   flac  0.4889  19 Space.flac
     9:02.18       95651180 B   ---   --   ---xx   flac  0.6000  20 Knockin' On Heaven's Door.flac
     7:46.30       82273004 B   ---   --   ---xx   flac  0.6449  21 Good Lovin'.flac
     3:31.59       37359212 B   ---   --   ---xx   flac  0.5641  22 Encore Break.flac
     4:29.53       47576300 B   ---   --   ---xx   flac  0.6561  23 Johnny B Goode.flac
   149:56.09     1586916580 B                            0.6142  (23 files)


Show Checksums
flac-md5
96e526f31e6352dff0125f424dbebca1 *01 Tuning.flac
593b23611525907392717104b7ac54fc *02 Feel Like A Stranger.flac
7d798cd14b9ce934322211ee853f401c *03 Franklin's Tower.flac
6cbfbe0ea9dfdf5b4e2cb79d48a6fd14 *04 New Minglewood Blues.flac
7ca38ab4b707e6b9d0cc66e4041d1e79 *05 Row Jimmy.flac
654d3fada3057603e0764e182f7b17a0 *06 Mama Tried.flac
203fecb099ad1d957171472aa400c1d6 *07 Big River.flac
03c10f7e6480d6234a036cd79bc45daf *08 Far From Me.flac
bebaf5030c6555c9f063b764f99f6a2a *09 Stagger Lee.flac
2e2568a6604c39b5cb6b379b14c2746c *10 Desolation Row.flac
21024d305b22f7e2e88b409daea88ffe *11 Don't Ease Me In.flac
855d6a6fc8521b703cb7cf0f9bfebda6 *12 Tuning.flac
875ffbdd54bbaaf2e70a535d4b008106 *13 Shakedown Street.flac
c074bed56cfd92087909e866622fe2bb *14 Samson And Delilah.flac
d6c8cda293450890a5b638731cb77917 *15 Iko Iko.flac
731365e88896be97dfe3bd093df69fc3 *16 Banana Boat Song (Day-O).flac
9ead90974dadf23d602e4e6c5bbf396f *17 Man Smart (Woman Smarter).flac
706a4201b3d523512e821613e6dbf4a8 *18 Drums.flac
a1775bd43ab4235a05e7532b6bcbf5ce *19 Space.flac
f496c3735cb428fdf7e0484b96266d98 *20 Knockin' On Heaven's Door.flac
348c6a2c94eb1e4c3aea823bf330386e *21 Good Lovin'.flac
87bd2fe78feafc7a8e1a032f4afa3683 *22 Encore Break.flac
5c5b132efa8095ce54c92c02cdd7cb47 *23 Johnny B Goode.flac
ffp
01 Tuning.flac:9f1f910674979e97ac4981671df5d7a9
02 Feel Like A Stranger.flac:786f182dac3664eb1bd2c03d740e85a8
03 Franklin's Tower.flac:6ab180a60773aeca5819da7268c7bde0
04 New Minglewood Blues.flac:34bdf30d115bbe7739153b0fde77a62e
05 Row Jimmy.flac:27cbaab3bdd1dfeccc13359459a7d5ab
06 Mama Tried.flac:8028cee807d53bace1d7ddee1086e807
07 Big River.flac:705393ac24c7a12fc7a2dca319b1f402
08 Far From Me.flac:5c642f0d33d6b13a8fe6ed4184da1d41
09 Stagger Lee.flac:ef84515fb2c62064ee6dc9d4506ea18b
10 Desolation Row.flac:7bb904cf949af34e4d79177f93cdb762
11 Don't Ease Me In.flac:76fbc302f16b30ff6e37bd29931602fe
12 Tuning.flac:0c888c95d906490bd54043b0e84f67e6
13 Shakedown Street.flac:8687978f9a519770b3870c9674e045a7
14 Samson And Delilah.flac:01a8dafb6a201196bc2c92dafbf6e22f
15 Iko Iko.flac:3563166ad1aff9eabb68d5ae51910461
16 Banana Boat Song (Day-O).flac:c2d9842155855d2db07515056bebbece
17 Man Smart (Woman Smarter).flac:591ab59d27efbcca32b48c4e46b2a790
18 Drums.flac:446dfabc63a0deba198de99490442d8c
19 Space.flac:65acc9e8942040c8c1c5da225e494e81
20 Knockin' On Heaven's Door.flac:78d45db781e7b8ee1236564558ec06fb
21 Good Lovin'.flac:7373ac70e56878c8e3b2117fe62f7d3a
22 Encore Break.flac:c5de7be1a8415d3ee2534ccdee41dffd
23 Johnny B Goode.flac:8bad498c4db6ed681a9930df0b202470

Comments
Add Comment
Other Sources (comments)
AUD> Beyer Dynamic M88's>... (0) unknown AUD> ?> CDR> EAC>... (3) flac16; Source: 2... (0) flac24; Source:... (0) flac24; Recording... (0) flac16; Source Info:... (0) flac16; Recording... (0)
Date User Comment