Browse Collections Artists Sources   Search Dates

Add Show    List Management    Help


Bob Weir 04/18/17
Saenger Theatre, New Orleans, LA
Comments Add Comment    Source Collectors    Add to Collection    Add to Want List    History
Source # 138794 Other Sources
Entered by Todd
Checksums md5 , ffp
Disc Counts 0 / 0
Media Size Compressed: 789 MB (827326464 bytes)
Date Circulated
Date Added
07/14/2017
07/15/2017
Source Summary & The Campfire Band Neumann AK40 actives (lemo/ortf) > 744T (24/48) > Audacity > CDWav (track) > TLH (flac,meta) Recorded and Mastered by: Walt Ferguson 
Source Information - Download Text | Download Zip
Bob Weir & The Campfire Band
Campfire Tour
Saenger Theatre
New Orleans, LA
2017/04/19

Source   : Neumann AK40 actives (lemo/ortf) > 744T (24/48)
Location : right rear corner of soundboard
Trasnsfer: Audacity > CDWav (track) > TLH (flac,meta)

Recorded and Mastered by: Walt Ferguson

Setlist:

Set 1:
01. Walkin' Blues
02. The Music Never Stopped > Shaky Ground > MNS
03. Blue Mountain
04. Cottonwood Lullaby
05. Ghost Towns
06. Darkest Hour
07. Gallop on the Run
08. Jack-A-Roe
09. Only a River
10. Lay My Lily Down

Set 2:
01. Me and Bobby McGee
02. Friend of the Devil
03. Truckin'
04. Passenger
05. Sugaree [a]
06. Bird Song [a]
07. China Cat Sunflower > I Know You Rider
08. E: Peggy-O


    length     expanded size    cdr  WAVE problems  fmt   ratio  filename
     5:51.347      67458604 B   cxx   --   ---xx   flac  0.4128  2017-04-18s1t01.flac
    12:16.120     141335084 B   cxx   --   ---xx   flac  0.4428  2017-04-18s1t02.flac
     5:52.040      67591724 B   cxx   --   ---xx   flac  0.3832  2017-04-18s1t03.flac
     7:26.347      85698604 B   cxx   --   ---xx   flac  0.3971  2017-04-18s1t04.flac
     5:37.893      64875564 B   cxx   --   ---xx   flac  0.4665  2017-04-18s1t05.flac
     5:34.013      64130604 B   cxx   --   ---xx   flac  0.4456  2017-04-18s1t06.flac
     4:53.853      56419884 B   cxx   --   ---xx   flac  0.3999  2017-04-18s1t07.flac
     6:10.627      71160364 B   cxx   --   ---xx   flac  0.4746  2017-04-18s1t08.flac
     6:18.147      72604204 B   cxx   --   ---xx   flac  0.4439  2017-04-18s1t09.flac
     6:17.613      72501800 B   cxx   --   ---xx   flac  0.4880  2017-04-18s1t10.flac
     7:09.653      82493484 B   cxx   --   ---xx   flac  0.4577  2017-04-18s2t01.flac
     6:11.200      71270444 B   cxx   --   ---xx   flac  0.4695  2017-04-18s2t02.flac
    14:35.067     168012844 B   cxx   --   ---xx   flac  0.4712  2017-04-18s2t03.flac
     5:41.307      65530924 B   cxx   --   ---xx   flac  0.5161  2017-04-18s2t04.flac
    14:50.173     170913324 B   cxx   --   ---xx   flac  0.4631  2017-04-18s2t05.flac
    15:07.440     174228524 B   cxx   --   ---xx   flac  0.4463  2017-04-18s2t06.flac
    21:15.840     244961324 B   cxx   --   ---xx   flac  0.4810  2017-04-18s2t07.flac
     7:41.320      88573480 B   cxx   --   ---xx   flac  0.4086  2017-04-18s2t08.flac
   158:50.000    1829760784 B                            0.4527  (18 files)

No errors occured.

2017-04-18s1t01.flac:6791fca6c979403ca0a1073fcdafdff2
2017-04-18s1t02.flac:c7f4f0a506f6f861c7db6a395ad8bbd7
2017-04-18s1t03.flac:df58ee38ffcb079bab9c02042881eca9
2017-04-18s1t04.flac:63e9d6e52544fe625af93bcc9e4edada
2017-04-18s1t05.flac:c8f3abf2b30b8b01c309e35b737aa46d
2017-04-18s1t06.flac:b838a98063aad7192b1515a93ef754f9
2017-04-18s1t07.flac:9b5f959ad34646a2034d8c3e36ae3242
2017-04-18s1t08.flac:aedec876d68f9da48bf5f2c2f6e43cb0
2017-04-18s1t09.flac:ec857faf725cadbfb468b643eaa1bfbe
2017-04-18s1t10.flac:0a8939c4e41cd4378e1b5f4b1a3ada6b
2017-04-18s2t01.flac:a7b2233e5c317ab4f472b5ac70576e47
2017-04-18s2t02.flac:5f24ce7548ce16165d1082342227a1da
2017-04-18s2t03.flac:88c7772f04f5a908d70f5b13eeb7dad7
2017-04-18s2t04.flac:eb994aaf7e04e49ce4d0d80051fe1152
2017-04-18s2t05.flac:69c088671575020d5838cf9a0deeae44
2017-04-18s2t06.flac:b0f287072857f1d368ab5fecede218ab
2017-04-18s2t07.flac:478cf6aedf3a0d26b269b8805fbd612e
2017-04-18s2t08.flac:32cb3a1c7980644dd6c6a94b8151a11d

No errors occured.



Show Checksums
md5
31fcd4e3693b0f120e1a45b22394afc1 *2017-04-18s1t01.flac
bb467118ef6fca905f6fc864263c4a1d *2017-04-18s1t02.flac
3aa9da5b4d0f519f9eb41f4cf0f96f5e *2017-04-18s1t03.flac
027973e45a42c140d1cebb6b0788de82 *2017-04-18s1t04.flac
da07ee6ec6025672432b067b9d412108 *2017-04-18s1t05.flac
af8acea54625db14525db85806c050cb *2017-04-18s1t06.flac
c155f3f780eb4175c490a7386ced7329 *2017-04-18s1t07.flac
2aeac9f5d59bd679b7ac2458f649f634 *2017-04-18s1t08.flac
a521ce55f6b2c2e3492762f00324e457 *2017-04-18s1t09.flac
65ff2bf07d02d858bc1c515a911c00e6 *2017-04-18s1t10.flac
a93bd8bb2810e3bda603a9e12d83a8c2 *2017-04-18s2t01.flac
ec10099579887b659d0c1deae0bc50fd *2017-04-18s2t02.flac
7919dd3b9124f109202426062a74a541 *2017-04-18s2t03.flac
03ae9a43172fbe6ee9e14bba67da288f *2017-04-18s2t04.flac
53a8fd30197f4bf8cd2510dfcf05b4d6 *2017-04-18s2t05.flac
563a02d4454acf20900aa7bff3a35275 *2017-04-18s2t06.flac
9c4d1572aa494df799c14a76190cabed *2017-04-18s2t07.flac
2de37bd32937f5991d563181fdea676f *2017-04-18s2t08.flac
ffp
2017-04-18s1t01.flac:6791fca6c979403ca0a1073fcdafdff2
2017-04-18s1t02.flac:c7f4f0a506f6f861c7db6a395ad8bbd7
2017-04-18s1t03.flac:df58ee38ffcb079bab9c02042881eca9
2017-04-18s1t04.flac:63e9d6e52544fe625af93bcc9e4edada
2017-04-18s1t05.flac:c8f3abf2b30b8b01c309e35b737aa46d
2017-04-18s1t06.flac:b838a98063aad7192b1515a93ef754f9
2017-04-18s1t07.flac:9b5f959ad34646a2034d8c3e36ae3242
2017-04-18s1t08.flac:aedec876d68f9da48bf5f2c2f6e43cb0
2017-04-18s1t09.flac:ec857faf725cadbfb468b643eaa1bfbe
2017-04-18s1t10.flac:0a8939c4e41cd4378e1b5f4b1a3ada6b
2017-04-18s2t01.flac:a7b2233e5c317ab4f472b5ac70576e47
2017-04-18s2t02.flac:5f24ce7548ce16165d1082342227a1da
2017-04-18s2t03.flac:88c7772f04f5a908d70f5b13eeb7dad7
2017-04-18s2t04.flac:eb994aaf7e04e49ce4d0d80051fe1152
2017-04-18s2t05.flac:69c088671575020d5838cf9a0deeae44
2017-04-18s2t06.flac:b0f287072857f1d368ab5fecede218ab
2017-04-18s2t07.flac:478cf6aedf3a0d26b269b8805fbd612e
2017-04-18s2t08.flac:32cb3a1c7980644dd6c6a94b8151a11d

Comments
Add Comment
Date User Comment