Browse Collections Artists Sources   Search Dates

Add Show    List Management    Help


Garcia 11/01/81
S.U.N.Y., Brockport, NY
Comments Add Comment    Source Collectors    Add to Collection    Add to Want List    History
Source # 138848 Other Sources
Entered by Joe Jupille
Checksums jgb1981-11-01.md5 , jgb1981-11-01.ffp
Disc Counts 0 / 0
Media Size Compressed: 388.87 MB (407760896 bytes)
Uncompressed: 712.59 MB (747202484 bytes)
Date Circulated
Date Added
07/23/2017
07/23/2017
Source Summary JGB, flac1644; Partial; Source: Unknown AUD kindly provided by wk & http://jgmf.blogspot.com/ Transfer: Maxell XLII > Nakamichi CR-5A > Edirol FA-66 > Wavelab 2448 > R8Brain > CD-Wave > TLH > FLAC 1644 tagged. Transfer by Andrew F. 07/2017 
Source Information - Download Text | Download Zip
JERRY GARCIA BAND
Tuttle North Gym, SUNY
Brockport NY
11-01-1981
Partial Show

s1t01 The Way You Do the Things You Do
s1t02 They Love Each Other
s1t03 Mississippi Moon
s1t04 I Second That Emotion
s1t05 Mystery Train
s1t06 Tangled Up in Blue
s2t01 The Harder They Come

Source: Unknown AUD kindly provided by wk & http://jgmf.blogspot.com/

Transfer: Maxell XLII > Nakamichi CR-5A > Edirol FA-66 > Wavelab 2448 >
R8Brain > CD-Wave > TLH > FLAC 1644 tagged. Transfer by Andrew F. 07/2017

Note: Doesn't match ID-91112. We're getting closer to completing this show.

    length     expanded size    cdr  WAVE problems  fmt   ratio  filename
     7:22.18       78011180 B   ---   --   ---xx   flac  0.5490  jgb1981-11-01s1t01.flac
     8:00.25       84730844 B   ---   --   ---xx   flac  0.5418  jgb1981-11-01s1t02.flac
    12:04.32      127788908 B   ---   --   ---xx   flac  0.5241  jgb1981-11-01s1t03.flac
     9:05.54       96265052 B   ---   --   ---xx   flac  0.5407  jgb1981-11-01s1t04.flac
     8:46.20       92833484 B   ---   --   ---xx   flac  0.5572  jgb1981-11-01s1t05.flac
    10:37.38      112456220 B   ---   --   ---xx   flac  0.5580  jgb1981-11-01s1t06.flac
    14:39.26      155116796 B   ---   --   ---xx   flac  0.5512  jgb1981-11-01s2t01.flac
    70:35.63      747202484 B                            0.5457  (7 files)

No errors occured.


Show Checksums
jgb1981-11-01.md5
9dfabd51e9b2270ac70237bd97160267 *jgb1981-11-01s1t01.flac
fa0549cca6924a3ed982fcf3e7819d8a *jgb1981-11-01s1t02.flac
6a0b6fbec6dfa468b5739a74637d75e4 *jgb1981-11-01s1t03.flac
f6b5ce7ed943b853ee91da0f9ed5c22d *jgb1981-11-01s1t04.flac
e82f6d310ffaf4f06d0c3624c82c0a75 *jgb1981-11-01s1t05.flac
7b13edf8c11261743fd4e2a10c7a1871 *jgb1981-11-01s1t06.flac
fe30d1fa7221249d0a014d1bac15a0e0 *jgb1981-11-01s2t01.flac
jgb1981-11-01.ffp
jgb1981-11-01s1t01.flac:6d7566e7aba820b862a3f58be8a72771
jgb1981-11-01s1t02.flac:3422f7eea763c2a281377be3d58255d2
jgb1981-11-01s1t03.flac:5d577852f0bdb2b56b7e0c4fca177268
jgb1981-11-01s1t04.flac:51ab81de19b7259c80efea8abfa278d4
jgb1981-11-01s1t05.flac:1c290002fe71bbc2919a48f84f2df3c3
jgb1981-11-01s1t06.flac:aeb830d26d58821fd8a68cb890f275e6
jgb1981-11-01s2t01.flac:a6c7899d35425535473acee12fa329d2

Comments
Add Comment
Other Sources (comments)
JGB; Recorded by Bob Gates;... (0) JGB, flac24; Unknown Mics >... (0) JGB, flac1644; Unknown Mics... (0)
Date User Comment