Browse Collections Artists Sources   Search Dates

Add Show    List Management    Help


Phish 07/22/17
Madison Square Garden, New York, NY
Comments Add Comment    Source Collectors    Add to Collection    Add to Want List    History
Source # 138850 Other Sources
Entered by Matt Vernon
Checksums ffp
Disc Counts 0 / 0
Media Size
Date Circulated
Date Added

07/23/2017
Source Summary flac16 44.1khz DPA 4011 > V3 Digital > R44 (24/96) SDHC Card > Sound Forge Pro 2.5 (fades, Normalize, tracking, resample iZotope 64-Bit SRC, dither iZotope MBIT+ Dither) > xAct (Flac level 8, tagging, fix SBE) DIN/slightly LOC in first row of OTS/8’ high. Taped and Transferred by Brian V. 
Source Information - Download Text | Download Zip
Phish
2017-07-22
Madison Square Garden
New York, NY

DPA 4011 > V3 Digital > R44 (24/96)
SDHC Card > Sound Forge Pro 2.5 (fades, Normalize, tracking, resample iZotope 64-Bit SRC, dither iZotope MBIT+ Dither) > xAct (Flac level 8, tagging, fix SBE)
DIN/slightly LOC in first row of OTS/8’ high

Taped and Transferred by Brian V.

Set 1

01. Strawberry Fields Forever[1]
02. Halley's Comet >
03. The Moma Dance[2] >
04. Breath and Burning >
05. Funky Bitch
06. Mound
07. Foam
08. Roggae
09. The Squirming Coil

SET 2

01. Down with Disease
02. Strawberry Letter 23[3] >
03. Birds of a Feather
04. I Always Wanted It This Way[4] >
05. All of These Dreams
06. Split Open and Melt >
07. Down with Disease >
08. Shine a Light
09. encore break
10. Peaches en Regalia >
11. Cities
12. My Sweet One


[1] Phish debut; a cappella.
[2] Unfinished.
[3] Phish debut.
[4] With Trey on Marimba Lumina.

Night 2 of the Bakers Dozen - Strawberry show
Setlist Notes from phish.net

***Support Bands That Allow Taping/Trading***

shntool output
    length     expanded size    cdr  WAVE problems  fmt   ratio  filename
     4:23.20       46440284 B   ---   --   -----    wav  1.0000  ph2017-07-22s1t01.wav
     6:23.21       67610636 B   ---   --   -----    wav  1.0000  ph2017-07-22s1t02.wav
    17:30.10      185243564 B   ---   --   -----    wav  1.0000  ph2017-07-22s1t03.wav
    10:08.13      107281820 B   ---   --   -----    wav  1.0000  ph2017-07-22s1t04.wav
     7:08.36       75583916 B   ---   --   -----    wav  1.0000  ph2017-07-22s1t05.wav
     6:17.74       66676892 B   ---   --   -----    wav  1.0000  ph2017-07-22s1t06.wav
     8:49.71       93482636 B   ---   --   -----    wav  1.0000  ph2017-07-22s1t07.wav
    10:26.18      110468780 B   ---   --   -----    wav  1.0000  ph2017-07-22s1t08.wav
    11:03.24      117009692 B   ---   --   -----    wav  1.0000  ph2017-07-22s1t09.wav
    18:41.42      197843228 B   ---   --   -----    wav  1.0000  ph2017-07-22s2t01.wav
     5:32.68       58724780 B   ---   --   -----    wav  1.0000  ph2017-07-22s2t02.wav
     6:29.05       68631404 B   ---   --   -----    wav  1.0000  ph2017-07-22s2t03.wav
    10:01.19      106061132 B   ---   --   -----    wav  1.0000  ph2017-07-22s2t04.wav
     4:11.45       44382284 B   ---   --   -----    wav  1.0000  ph2017-07-22s2t05.wav
    11:16.50      119364044 B   ---   --   -----    wav  1.0000  ph2017-07-22s2t06.wav
     7:01.71       74431436 B   ---   --   -----    wav  1.0000  ph2017-07-22s2t07.wav
     4:26.29       46990652 B   ---   --   -----    wav  1.0000  ph2017-07-22s2t08.wav
     3:03.57       32415308 B   ---   --   -----    wav  1.0000  ph2017-07-22s2t09.wav
     3:28.42       36790028 B   ---   --   -----    wav  1.0000  ph2017-07-22s2t10.wav
     4:44.62       50243468 B   ---   --   -----    wav  1.0000  ph2017-07-22s2t11.wav
     3:35.48       38038940 B   ---   --   -----    wav  1.0000  ph2017-07-22s2t12.wav
   164:45.00     1743714924 B                            1.0000  (21 files)

flac fingerprints
ph2017-07-22s1t01.flac:f3bd024accdb9098fc56f3371c75bcca
ph2017-07-22s1t02.flac:58f658846a7df956c03909465a082698
ph2017-07-22s1t03.flac:1ca29e0ff040b3bd54fd21c42eae2e14
ph2017-07-22s1t04.flac:d3b3a7aadf410cc3ce28d1cc0e17a952
ph2017-07-22s1t05.flac:7bb41c0217a8862c60d047939ba83051
ph2017-07-22s1t06.flac:19fd71bf5f5f452a236bbe5d70f72864
ph2017-07-22s1t07.flac:e2d67d6d093cb2f2f2667b306e44d982
ph2017-07-22s1t08.flac:056c32ae238735738d4faab4c986be8c
ph2017-07-22s1t09.flac:3862c4cf6fdcc8240bccc4efcac26258
ph2017-07-22s2t01.flac:b7a4fb43c109ec3af191f91b148cfdb0
ph2017-07-22s2t02.flac:7a623d12b9f3e32349705282a2c528b7
ph2017-07-22s2t03.flac:c9547ecae21c7128f4858053d50e90d8
ph2017-07-22s2t04.flac:085634eecd14794919727b20624d6473
ph2017-07-22s2t05.flac:e31e8283249b6dc6275a7b4362e90c26
ph2017-07-22s2t06.flac:9ab640aa6d4b433156bc800348071061
ph2017-07-22s2t07.flac:70fc1d1adb141ace2c0ce81737484b3d
ph2017-07-22s2t08.flac:82e3d9dee342310c755069cc3d6a456b
ph2017-07-22s2t09.flac:66d276a270cc18443286f415e4ad16b2
ph2017-07-22s2t10.flac:f85c896eba73d09f966091760b75dcd2
ph2017-07-22s2t11.flac:0620883140f2d50d354143c90fd1d941
ph2017-07-22s2t12.flac:95abb68b357ef58a6a54c3b611e7640e
Show Checksums
ffp
ph2017-07-22s1t01.flac:f3bd024accdb9098fc56f3371c75bcca
ph2017-07-22s1t02.flac:58f658846a7df956c03909465a082698
ph2017-07-22s1t03.flac:1ca29e0ff040b3bd54fd21c42eae2e14
ph2017-07-22s1t04.flac:d3b3a7aadf410cc3ce28d1cc0e17a952
ph2017-07-22s1t05.flac:7bb41c0217a8862c60d047939ba83051
ph2017-07-22s1t06.flac:19fd71bf5f5f452a236bbe5d70f72864
ph2017-07-22s1t07.flac:e2d67d6d093cb2f2f2667b306e44d982
ph2017-07-22s1t08.flac:056c32ae238735738d4faab4c986be8c
ph2017-07-22s1t09.flac:3862c4cf6fdcc8240bccc4efcac26258
ph2017-07-22s2t01.flac:b7a4fb43c109ec3af191f91b148cfdb0
ph2017-07-22s2t02.flac:7a623d12b9f3e32349705282a2c528b7
ph2017-07-22s2t03.flac:c9547ecae21c7128f4858053d50e90d8
ph2017-07-22s2t04.flac:085634eecd14794919727b20624d6473
ph2017-07-22s2t05.flac:e31e8283249b6dc6275a7b4362e90c26
ph2017-07-22s2t06.flac:9ab640aa6d4b433156bc800348071061
ph2017-07-22s2t07.flac:70fc1d1adb141ace2c0ce81737484b3d
ph2017-07-22s2t08.flac:82e3d9dee342310c755069cc3d6a456b
ph2017-07-22s2t09.flac:66d276a270cc18443286f415e4ad16b2
ph2017-07-22s2t10.flac:f85c896eba73d09f966091760b75dcd2
ph2017-07-22s2t11.flac:0620883140f2d50d354143c90fd1d941
ph2017-07-22s2t12.flac:95abb68b357ef58a6a54c3b611e7640e

Comments
Add Comment
Other Sources (comments)
flac16 44.1khz... (0) flac24 48khz ... (0) flac24 96khz DPA... (0) flac16 44.1khz ... (1) flac24 96khz ... (0) flac24 96khz ... (0) flac16 44.1khz ... (0)
Date User Comment