Browse Collections Artists Sources   Search Dates

Add Show    List Management    Help


Phish 07/22/17
Madison Square Garden, New York, NY
Comments Add Comment    Source Collectors    Add to Collection    Add to Want List    History
Source # 138851 Other Sources
Entered by Matt Vernon
Checksums ffp
Disc Counts 0 / 0
Media Size
Date Circulated
Date Added

07/23/2017
Source Summary flac24 96khz DPA 4011 > V3 Digital > R44 (24/96) SDHC Card > Sound Forge Pro 2.5 (fades, Normalize, tracking) > xAct (Flac level 8, tagging). DIN/slightly LOC in first row of OTS/8’ high. Taped and Transferred by Brian V. 
Source Information - Download Text | Download Zip
Phish
2017-07-22
Madison Square Garden
New York, NY

DPA 4011 > V3 Digital > R44 (24/96)
SDHC Card > Sound Forge Pro 2.5 (fades, Normalize, tracking) > xAct (Flac level 8, tagging)
DIN/slightly LOC in first row of OTS/8’ high

Taped and Transferred by Brian V.

Set 1

01. Strawberry Fields Forever[1]
02. Halley's Comet >
03. The Moma Dance[2] >
04. Breath and Burning >
05. Funky Bitch
06. Mound
07. Foam
08. Roggae
09. The Squirming Coil

SET 2

01. Down with Disease
02. Strawberry Letter 23[3] >
03. Birds of a Feather
04. I Always Wanted It This Way[4] >
05. All of These Dreams
06. Split Open and Melt >
07. Down with Disease >
08. Shine a Light
09. encore break
10. Peaches en Regalia >
11. Cities
12. My Sweet One


[1] Phish debut; a cappella.
[2] Unfinished.
[3] Phish debut.
[4] With Trey on Marimba Lumina.

Night 2 of the Bakers Dozen - Strawberry show
Setlist Notes from phish.net

***Support Bands That Allow Taping/Trading***

shntool output
    length     expanded size    cdr  WAVE problems  fmt   ratio  filename
     4:23.275     151646252 B   cxx   --   -----    wav  1.0000  ph2017-07-22s1t01.wav
     6:23.275     220766252 B   cxx   --   -----    wav  1.0000  ph2017-07-22s1t02.wav
    17:30.139     604879916 B   cxx   --   -----    wav  1.0000  ph2017-07-22s1t03.wav
    10:08.176     350309420 B   cxx   --   -----    wav  1.0000  ph2017-07-22s1t04.wav
     7:08.480     246804524 B   cxx   --   -----    wav  1.0000  ph2017-07-22s1t05.wav
     6:17.984     217718828 B   cxx   --   -----    wav  1.0000  ph2017-07-22s1t06.wav
     8:49.952     305252396 B   cxx   --   -----    wav  1.0000  ph2017-07-22s1t07.wav
    10:26.240     360714284 B   cxx   --   -----    wav  1.0000  ph2017-07-22s1t08.wav
    11:03.296     382058540 B   cxx   --   -----    wav  1.0000  ph2017-07-22s1t09.wav
    18:41.573     646026278 B   cxx   --   -----    wav  1.0000  ph2017-07-22s2t01.wav
     5:32.904     191752748 B   cxx   --   -----    wav  1.0000  ph2017-07-22s2t02.wav
     6:29.064     224100908 B   cxx   --   -----    wav  1.0000  ph2017-07-22s2t03.wav
    10:01.259     346325036 B   cxx   --   -----    wav  1.0000  ph2017-07-22s2t04.wav
     4:11.589     144915500 B   cxx   --   -----    wav  1.0000  ph2017-07-22s2t05.wav
    11:16.667     389760044 B   cxx   --   -----    wav  1.0000  ph2017-07-22s2t06.wav
     7:01.957     243047468 B   cxx   --   -----    wav  1.0000  ph2017-07-22s2t07.wav
     4:26.384     153437228 B   cxx   --   -----    wav  1.0000  ph2017-07-22s2t08.wav
     3:03.755     105842732 B   cxx   --   -----    wav  1.0000  ph2017-07-22s2t09.wav
     3:28.565     120133676 B   cxx   --   -----    wav  1.0000  ph2017-07-22s2t10.wav
     4:44.824     164058668 B   cxx   --   -----    wav  1.0000  ph2017-07-22s2t11.wav
     3:35.624     124199468 B   cxx   --   -----    wav  1.0000  ph2017-07-22s2t12.wav
   164:44.981    5693750166 B                            1.0000  (21 files)

flac fingerprints
ph2017-07-22s1t01.flac:5abd918e3c99c24b979bc6b046dbe01a
ph2017-07-22s1t02.flac:9e8b0a468c4527c76fbffb35ce643659
ph2017-07-22s1t03.flac:0381a156d87824a245c833ba8817fa22
ph2017-07-22s1t04.flac:30265447a62a6e2709d7431a548a33eb
ph2017-07-22s1t05.flac:9b6c43581575a1d24a1ffbc83000411b
ph2017-07-22s1t06.flac:4f5631723535e4d4194b4955ee242dbc
ph2017-07-22s1t07.flac:2fa0db38d6f903f55dda8feac284519f
ph2017-07-22s1t08.flac:8e34b074b15fa32cac0e9cad8aa1d856
ph2017-07-22s1t09.flac:57d582d064a32fec25f996ec73f07cfe
ph2017-07-22s2t01.flac:71a7ec5a10fb2b18c74426c23ab02bdc
ph2017-07-22s2t02.flac:2f731b7133ba2155e5ef95e9f62163f5
ph2017-07-22s2t03.flac:fbcd6e8c9b29c33cc1b21b0388738ced
ph2017-07-22s2t04.flac:2b49d6b1a3015f2f08fa24f7635f6b95
ph2017-07-22s2t05.flac:79f8c97c8363684df87332159389cf58
ph2017-07-22s2t06.flac:41e8d3c25a3e758a4dc9ee30a8cce344
ph2017-07-22s2t07.flac:57127ad3f8840398066a4e400146cb70
ph2017-07-22s2t08.flac:54f56ae0860039e8eff148f472f074de
ph2017-07-22s2t09.flac:8bdce85019385896770e48e55c4db5fa
ph2017-07-22s2t10.flac:8740319bf408d6912353f8ffe882c471
ph2017-07-22s2t11.flac:1e8532f593f604e261e1b5e648c0c208
ph2017-07-22s2t12.flac:9484031de21d0b61d32400017234b87b
Show Checksums
ffp
ph2017-07-22s1t01.flac:5abd918e3c99c24b979bc6b046dbe01a
ph2017-07-22s1t02.flac:9e8b0a468c4527c76fbffb35ce643659
ph2017-07-22s1t03.flac:0381a156d87824a245c833ba8817fa22
ph2017-07-22s1t04.flac:30265447a62a6e2709d7431a548a33eb
ph2017-07-22s1t05.flac:9b6c43581575a1d24a1ffbc83000411b
ph2017-07-22s1t06.flac:4f5631723535e4d4194b4955ee242dbc
ph2017-07-22s1t07.flac:2fa0db38d6f903f55dda8feac284519f
ph2017-07-22s1t08.flac:8e34b074b15fa32cac0e9cad8aa1d856
ph2017-07-22s1t09.flac:57d582d064a32fec25f996ec73f07cfe
ph2017-07-22s2t01.flac:71a7ec5a10fb2b18c74426c23ab02bdc
ph2017-07-22s2t02.flac:2f731b7133ba2155e5ef95e9f62163f5
ph2017-07-22s2t03.flac:fbcd6e8c9b29c33cc1b21b0388738ced
ph2017-07-22s2t04.flac:2b49d6b1a3015f2f08fa24f7635f6b95
ph2017-07-22s2t05.flac:79f8c97c8363684df87332159389cf58
ph2017-07-22s2t06.flac:41e8d3c25a3e758a4dc9ee30a8cce344
ph2017-07-22s2t07.flac:57127ad3f8840398066a4e400146cb70
ph2017-07-22s2t08.flac:54f56ae0860039e8eff148f472f074de
ph2017-07-22s2t09.flac:8bdce85019385896770e48e55c4db5fa
ph2017-07-22s2t10.flac:8740319bf408d6912353f8ffe882c471
ph2017-07-22s2t11.flac:1e8532f593f604e261e1b5e648c0c208
ph2017-07-22s2t12.flac:9484031de21d0b61d32400017234b87b

Comments
Add Comment
Other Sources (comments)
flac16 44.1khz... (0) flac24 48khz ... (0) flac16 44.1khz DPA... (0) flac16 44.1khz ... (1) flac24 96khz ... (0) flac24 96khz ... (0) flac16 44.1khz ... (0)
Date User Comment