Browse Collections Artists Sources   Search Dates

Add Show    List Management    Help


Phish 07/23/17
Madison Square Garden, New York, NY
Comments Add Comment    Source Collectors    Add to Collection    Add to Want List    History
Source # 138852 Other Sources
Entered by Matt Vernon
Checksums ffp
Disc Counts 0 / 0
Media Size
Date Circulated
Date Added

07/24/2017
Source Summary flac16 44.1khz Source: Schoeps CCM4V's>Lunatec V2>Benchmark AD2K> Sound Devices 722 (24/44) BOB/OTS/DLFC/KFC/ZFC/AARP Section 2, Row 1, Seat 3, 7 1/2' High DSP: Sound Devices 722>Sound Forge 10.0>CD Wave>flac(16) ID3 Tagged In Foobar 2000 Recorded By: Z-Man Seeded By: Z-Man 
Source Information - Download Text | Download Zip
Phish
Madison Square Garden
New York City, New York
7/23/2017

Source: Schoeps CCM4V's>Lunatec V2>Benchmark AD2K>
Sound Devices 722 (24/44)
BOB/OTS/DLFC/KFC/ZFC/AARP Section 2, Row 1, Seat 3, 7 1/2' High
DSP: Sound Devices 722>Sound Forge 10.0>CD Wave>flac(16)
ID3 Tagged In Foobar 2000
Recorded By: Z-Man
Seeded By: Z-Man

Disc I 1st Set

01 *Sunday Morning
03 Axilla >
03 Your Pet Cat
04 Back On The Train
05 How Many People Are You
06 Glide
07 Theme From The Bottom >
08 It's Ice >
09 More

Disc II 2nd Set

01 AC/DC Bag >
03 Wolfman's Brother >
03 Twist >
04 Waves >
05 Miss You
06 Boogie On Raggae Woman >
07 Wading In The Velvet Sea
Encore:
08 Sweet Jane

* First Time Played. Trey On Drums And Jon Fishman On Vocals

phish2017-07-23d01t01.flac:6de53b0d08d34bebd064074feda6355e
phish2017-07-23d01t02.flac:434968b6ebe3c04dd24f8091893bdd6c
phish2017-07-23d01t03.flac:4bd52e8792205b1cdf5a2d2b4bed9251
phish2017-07-23d01t04.flac:98241cd5b486ff1c863ef5b05be4bd81
phish2017-07-23d01t05.flac:da782a8e1a3fd59095ea3d569920afca
phish2017-07-23d01t06.flac:aa3f024448cbcfe16751ca3dd2014de9
phish2017-07-23d01t07.flac:522ae781990deae2a8a5c461df2c54ae
phish2017-07-23d01t08.flac:4bf1dbf5d9f36316565554d1d1e117b0
phish2017-07-23d01t09.flac:b272bf013f1ce9231e8d06b36badc959
phish2017-07-23d02t01.flac:685c8887d89d4b74543b94116e65f22e
phish2017-07-23d02t02.flac:534e7f6659ebf4598c18706d5c00b428
phish2017-07-23d02t03.flac:e46281c69795faab2775aac7b6fcf5b8
phish2017-07-23d02t04.flac:61f9f1606ecb80bca329fe1fa7890a4e
phish2017-07-23d02t05.flac:dfc46fe6e7ab84f918db099e5f1fc82b
phish2017-07-23d02t06.flac:bd7f64216f2460b73c16c982b9fc852d
phish2017-07-23d02t07.flac:c3bea9ed55ee38dd78e138ec1fc1aafb
phish2017-07-23d02t08.flac:64426a68bedfc960242fecdf93fc5169

length     expanded size    cdr  WAVE problems  fmt   ratio  filename
     5:54.51       62565596 B   ---   --   ---xx   flac  0.4098  phish2017-07-23d01t01.flac
     3:28.74       36865292 B   ---   --   ---xx   flac  0.5409  phish2017-07-23d01t02.flac
     5:32.73       58736540 B   ---   --   ---xx   flac  0.5261  phish2017-07-23d01t03.flac
    10:56.11      115744316 B   ---   --   ---xx   flac  0.5081  phish2017-07-23d01t04.flac
     9:20.28       98849900 B   ---   --   ---xx   flac  0.5229  phish2017-07-23d01t05.flac
     4:46.17       50490428 B   ---   --   ---xx   flac  0.4601  phish2017-07-23d01t06.flac
     9:26.08       99861260 B   ---   --   ---xx   flac  0.4917  phish2017-07-23d01t07.flac
    15:10.43      160625180 B   ---   --   ---xx   flac  0.5003  phish2017-07-23d01t08.flac
     7:51.58       83220860 B   ---   --   ---xx   flac  0.5265  phish2017-07-23d01t09.flac
     7:36.66       80593676 B   ---   --   ---xx   flac  0.4932  phish2017-07-23d02t01.flac
    14:53.74      157699292 B   ---   --   ---xx   flac  0.4809  phish2017-07-23d02t02.flac
    16:01.32      169595708 B   ---   --   ---xx   flac  0.4986  phish2017-07-23d02t03.flac
    11:13.16      118754876 B   ---   --   ---xx   flac  0.4518  phish2017-07-23d02t04.flac
     7:32.49       79848092 B   ---   --   ---xx   flac  0.4744  phish2017-07-23d02t05.flac
     7:50.07       82924508 B   ---   --   ---xx   flac  0.5120  phish2017-07-23d02t06.flac
     7:39.06       80981756 B   ---   --   ---xx   flac  0.4883  phish2017-07-23d02t07.flac
     6:16.14       66359372 B   ---   --   ---xx   flac  0.5276  phish2017-07-23d02t08.flac
   151:31.27     1603716652 B                            0.4940  (17 files)
Show Checksums
ffp
phish2017-07-23d01t01.flac:6de53b0d08d34bebd064074feda6355e
phish2017-07-23d01t02.flac:434968b6ebe3c04dd24f8091893bdd6c
phish2017-07-23d01t03.flac:4bd52e8792205b1cdf5a2d2b4bed9251
phish2017-07-23d01t04.flac:98241cd5b486ff1c863ef5b05be4bd81
phish2017-07-23d01t05.flac:da782a8e1a3fd59095ea3d569920afca
phish2017-07-23d01t06.flac:aa3f024448cbcfe16751ca3dd2014de9
phish2017-07-23d01t07.flac:522ae781990deae2a8a5c461df2c54ae
phish2017-07-23d01t08.flac:4bf1dbf5d9f36316565554d1d1e117b0
phish2017-07-23d01t09.flac:b272bf013f1ce9231e8d06b36badc959
phish2017-07-23d02t01.flac:685c8887d89d4b74543b94116e65f22e
phish2017-07-23d02t02.flac:534e7f6659ebf4598c18706d5c00b428
phish2017-07-23d02t03.flac:e46281c69795faab2775aac7b6fcf5b8
phish2017-07-23d02t04.flac:61f9f1606ecb80bca329fe1fa7890a4e
phish2017-07-23d02t05.flac:dfc46fe6e7ab84f918db099e5f1fc82b
phish2017-07-23d02t06.flac:bd7f64216f2460b73c16c982b9fc852d
phish2017-07-23d02t07.flac:c3bea9ed55ee38dd78e138ec1fc1aafb
phish2017-07-23d02t08.flac:64426a68bedfc960242fecdf93fc5169

Comments
Add Comment
Other Sources (comments)
flac16 44.1khz ... (0) flac24 48khz ... (0) flac24 48khz ... (0) flac16 44.1khz ... (0) flac16 44.1khz ... (0) flac24 48khz... (0) flac24 48khz... (0) flac24 48khz... (0) flac16 44.1khz ... (0) flac24 96khz... (0) flac16 48khz Field:... (0) flac24 96khz ... (0) flac16 44.1khz... (0) flac16 44.1khz ... (1)
Date User Comment