Browse Collections Artists Sources   Search Dates

Add Show    List Management    Help


Phish 07/21/17
Madison Square Garden, New York, NY
Comments Add Comment    Source Collectors    Add to Collection    Add to Want List    History
Source # 138920 Other Sources
Entered by Matt Vernon
Checksums ffp
Disc Counts 0 / 0
Media Size
Date Circulated
Date Added

07/30/2017
Source Summary flac24 44.1khz Field: AKG C414xls card/hyper > Edirol R4Pro ( Oade preamp mod ) @ 24/88.2. config: OTS - pointed at PA array, 12.5 feet high (from floor). Path: R4Pro > WaveBurner ( track on sector boundaries, fades, SRC, BDC, POW-r 3 dither ) > xACT ( to flac, and for tagging and checksums ). Recorded, processed and let loose by Mike Kutik. 
Source Information - Download Text | Download Zip
Phish
7/21/17
Baker's Dozen Night 1 - Coconut
Madison Square Garden
New York, New York

***24 bit 44.1khz version ***

Field: AKG C414xls card/hyper > Edirol R4Pro ( Oade preamp mod ) @ 24/88.2
config: OTS - pointed at PA array, 12.5 feet high (from floor)
Path: R4Pro > WaveBurner ( track on sector boundaries, fades, SRC, BDC, POW-r 3 dither ) > xACT ( to flac, and for tagging and checksums )

Recorded, processed and let loose by Mike Kutik ( padelimike at mac d0t c0m )
At bt.etree.org 2017-07-28


Set the First:
crowd in
Shake Your Coconuts
Martian Monster
Timber (Jerry the Mule)
555
Pigtail
Halfway to the Moon
Reba
Moonage Daydream
Walls of the Cave

Set the Second:
crowd in
Tweezer
Seven Below
Billy Breathes
Sparkle
Everything's Right
Slave to the Traffic Light
Suzy Greenberg
Coconut
encore break
The Mango Song
Good Times, Bad Times

Fade tracks are included for smooth CDR playback.

As always, here are the non-torrent links:

Set 1> https://www.sendspace.com/file/im0rgz 427MB FLAC16
Set 2> https://www.sendspace.com/file/vuyf6m 513MB FLAC16
(fade tracks in Set 2 zip)

24-bit version:
Set 1> https://www.sendspace.com/file/2dt2lu 869MB
Set 2> https://www.sendspace.com/file/o3jcyl 959MB

@320 mp3 version:
Set 1> https://www.sendspace.com/pro/dl/mtr3eo 206MB
Set 2> https://www.sendspace.com/file/oo3iht 242MB


Sample Tracks:

Moonage Daydream > https://www.sendspace.com/file/7oml9k 21MB @320 mp3
Moonage Daydream > https://www.sendspace.com/file/a5uf2q 38.5MB FLAC16
Moonage Daydream > https://www.sendspace.com/file/e8gl6s 76MB FLAC24

The Mango Song > https://www.sendspace.com/file/aeudyq 21MB @320mp3
The Mango Song > https://www.sendspace.com/file/syysjt 45MB FLAC16
The Mango Song > https://www.sendspace.com/file/9vgvxt 84MB FLAC24

    length     expanded size    cdr  WAVE problems  fmt   ratio  filename
     0:42.267      11183804 B   cxx   --   ---xx   flac  1.5726  ph2017-07-21s1t01.crowd_in.flac
     3:04.040      48697028 B   cxx   --   ---xx   flac  0.9344  ph2017-07-21s1t02.Shake_Your_Coconuts.flac
     5:59.093      95016140 B   cxx   --   ---xx   flac  0.7981  ph2017-07-21s1t03.Martian.flac
     8:30.960     135200060 B   cxx   --   ---xx   flac  0.7394  ph2017-07-21s1t04.Timber.flac
     7:32.387     119701556 B   cxx   --   ---xx   flac  0.7574  ph2017-07-21s1t05.555.flac
     7:58.880     126711692 B   cxx   --   ---xx   flac  0.7639  ph2017-07-21s1t06.Pigtail.flac
     8:43.893     138622220 B   cxx   --   ---xx   flac  0.7623  ph2017-07-21s1t07.Halfway.flac
    12:52.133     204306524 B   cxx   --   ---xx   flac  0.7335  ph2017-07-21s1t08.Reba.flac
     6:08.053      97386956 B   cxx   --   ---xx   flac  0.8208  ph2017-07-21s1t09.Moonage_Daydream.flac
    12:48.853     203438636 B   cxx   --   ---xx   flac  0.7355  ph2017-07-21s1t10.WotC.flac
     1:11.560      18934820 B   cxx   --   ---xx   flac  0.7759  ph2017-07-21s2t01.crowd_in.flac
    15:41.093     249013340 B   cxx   --   ---xx   flac  0.7105  ph2017-07-21s2t02.Tweezer.flac
    13:31.427     214703540 B   cxx   --   ---xx   flac  0.7040  ph2017-07-21s2t03.7_Below.flac
     5:09.733      81955484 B   cxx   --   ---xx   flac  0.7113  ph2017-07-21s2t04.BBreathes.flac
     4:12.373      66778028 B   cxx   --   ---xx   flac  0.7533  ph2017-07-21s2t05.Sparkle.flac
    11:33.787     183575996 B   cxx   --   ---xx   flac  0.7230  ph2017-07-21s2t06.Everythings_Right.flac
     9:22.667     148881644 B   cxx   --   ---xx   flac  0.6993  ph2017-07-21s2t07.Slave.flac
     8:13.493     130578380 B   cxx   --   ---xx   flac  0.7218  ph2017-07-21s2t08.Suzy.flac
     2:26.453      38751596 B   cxx   --   ---xx   flac  0.7077  ph2017-07-21s2t09.Coconut.flac
     2:28.107      39189068 B   cxx   --   ---xx   flac  0.7096  ph2017-07-21s2t10.encore_break.flac
     7:42.560     122393420 B   cxx   --   ---xx   flac  0.7204  ph2017-07-21s2t11.Mango.flac
     6:49.973     108478988 B   cxx   --   ---xx   flac  0.7320  ph2017-07-21s2t12.GTBT.flac
   162:43.787    2583498920 B                            0.7419  (22 files)


ph2017-07-21s1t01.crowd_in.flac:f96fdfd4e0e4d682285f6f87d59ab1ff
ph2017-07-21s1t02.Shake_Your_Coconuts.flac:4358c1d68eb73acd9cc115db1090111c
ph2017-07-21s1t03.Martian.flac:e09f2bb2ea55b04c02f466d35bed07ec
ph2017-07-21s1t04.Timber.flac:631358d30f9e2fcdea1482bfe4c69ec0
ph2017-07-21s1t05.555.flac:f21d9eaceceec814045d10c8b9fe25fb
ph2017-07-21s1t06.Pigtail.flac:c9a14a2149bde3d90fc9d8fbf65b7e72
ph2017-07-21s1t07.Halfway.flac:b21af256e82e815e14faf7b5df1d3a7d
ph2017-07-21s1t08.Reba.flac:16e8896006b5f4a23c7777c900d51f23
ph2017-07-21s1t09.Moonage_Daydream.flac:040be7afc74059d18c9e08907c8d714f
ph2017-07-21s1t10.WotC.flac:11572c560352fd7030f40820af507bf8
ph2017-07-21s2t01.crowd_in.flac:7ab39444f3c2503b30fd5620d8b75374
ph2017-07-21s2t02.Tweezer.flac:9ad16514ec3382523a714387a44e4236
ph2017-07-21s2t03.7_Below.flac:78af6cdb03b466016748881871e0c7a3
ph2017-07-21s2t04.BBreathes.flac:4f67ce793383869bbcf27cce42038c76
ph2017-07-21s2t05.Sparkle.flac:c49b50c6a57c61264f624a70881b40f5
ph2017-07-21s2t06.Everythings_Right.flac:0e20e051f2880d51baf94838bb81784a
ph2017-07-21s2t07.Slave.flac:edc2d3fbe8717a8ad1c625b7cb9bf4c8
ph2017-07-21s2t08.Suzy.flac:ae73abb48fa63a1f7df5dc175c81d9e5
ph2017-07-21s2t09.Coconut.flac:bafe5e8e40102dccb0fc9278f9bffb6d
ph2017-07-21s2t10.encore_break.flac:74be9fb90ede6cc9a6c6789a09a5aad4
ph2017-07-21s2t11.Mango.flac:d9c6e8263844bb346d977a46ef0c58a4
ph2017-07-21s2t12.GTBT.flac:d65d0be85088f307de0eaf1358637ecb
Show Checksums
ffp
ph2017-07-21s1t01.crowd_in.flac:f96fdfd4e0e4d682285f6f87d59ab1ff
ph2017-07-21s1t02.Shake_Your_Coconuts.flac:4358c1d68eb73acd9cc115db1090111c
ph2017-07-21s1t03.Martian.flac:e09f2bb2ea55b04c02f466d35bed07ec
ph2017-07-21s1t04.Timber.flac:631358d30f9e2fcdea1482bfe4c69ec0
ph2017-07-21s1t05.555.flac:f21d9eaceceec814045d10c8b9fe25fb
ph2017-07-21s1t06.Pigtail.flac:c9a14a2149bde3d90fc9d8fbf65b7e72
ph2017-07-21s1t07.Halfway.flac:b21af256e82e815e14faf7b5df1d3a7d
ph2017-07-21s1t08.Reba.flac:16e8896006b5f4a23c7777c900d51f23
ph2017-07-21s1t09.Moonage_Daydream.flac:040be7afc74059d18c9e08907c8d714f
ph2017-07-21s1t10.WotC.flac:11572c560352fd7030f40820af507bf8
ph2017-07-21s2t01.crowd_in.flac:7ab39444f3c2503b30fd5620d8b75374
ph2017-07-21s2t02.Tweezer.flac:9ad16514ec3382523a714387a44e4236
ph2017-07-21s2t03.7_Below.flac:78af6cdb03b466016748881871e0c7a3
ph2017-07-21s2t04.BBreathes.flac:4f67ce793383869bbcf27cce42038c76
ph2017-07-21s2t05.Sparkle.flac:c49b50c6a57c61264f624a70881b40f5
ph2017-07-21s2t06.Everythings_Right.flac:0e20e051f2880d51baf94838bb81784a
ph2017-07-21s2t07.Slave.flac:edc2d3fbe8717a8ad1c625b7cb9bf4c8
ph2017-07-21s2t08.Suzy.flac:ae73abb48fa63a1f7df5dc175c81d9e5
ph2017-07-21s2t09.Coconut.flac:bafe5e8e40102dccb0fc9278f9bffb6d
ph2017-07-21s2t10.encore_break.flac:74be9fb90ede6cc9a6c6789a09a5aad4
ph2017-07-21s2t11.Mango.flac:d9c6e8263844bb346d977a46ef0c58a4
ph2017-07-21s2t12.GTBT.flac:d65d0be85088f307de0eaf1358637ecb

Comments
Add Comment
Other Sources (comments)
flac16 44.1khz ... (1) flac24 48khz ... (0) flac16 44.1khz ... (0) flac24 96khz Field:... (0) flac24 96khz ... (0) flac16 44.1khz... (0) flac16 44.1khz ... (0)
Date User Comment