Browse Collections Artists Sources   Search Dates

Add Show    List Management    Help


Grateful Dead 05/14/83
Greek Theatre, U. Of California, Berkeley, CA
Comments Add Comment    Source Collectors    Add to Collection    Add to Want List    History
Source # 138938 Other Sources
Entered by Matt Vernon
Checksums ffp , flac-md5
Disc Counts 0 / 0
Media Size
Uncompressed: 1.42 GB (1528711592 bytes)
Date Circulated
Date Added
08/01/2017
08/01/2017
Source Summary Source: Audience recording > Schoeps > pcm > dat (44k) recorded FOB, taper unknown. Transfer: Dat > Sony PCM-R500 > Sound Devices 744T > wav 16/44.1 Lineage: wav > iZotope RX 6 Advanced > iZotope Ozone 5 Advanced > CD Wave > TLH > Flac 16 edited and mastered SIRMick August 2017 
  Archive
Source Information - Download Text | Download Zip
Grateful Dead
Greek Theatre
University of California
Berkeley, CA
05/14/1983


Source: Audience recording > Schoeps > pcm > dat (44k)
              recorded FOB, taper unknown.
Transfer: Dat > Sony PCM-R500 > Sound Devices 744T > wav 16/44.1
Lineage: wav > iZotope RX 6 Advanced > iZotope Ozone 5 Advanced > CD Wave > TLH > Flac 16




Set I

01   crowd/tuning
02   Feel Like A Stranger
03   Friend Of The Devil
04   Me And My Uncle >
05   Mexicali Blues
06   Happy Birthday Billy
07   Tennessee Jed
08   My Brother Esau
09   Bertha


Set II

01   tuning
02   Shakedown Street
03   Playing In The Band >
04   China Doll >
05   Jam >
06   Drums >
07   Space >
08   The Wheel >
09   Playing In The Band >
10   Morning Dew >
11   Sugar Magnolia
12   ~~encore break~~

encore

13   One More Saturday Night



Notes:

Patches

- Bertha - last 12.6 seconds
- Drums - 3:03 - 3:32

patch source: (FOB) Sony ECM-220T > Cassette Master (Sony TC-D5M/Fuji Metal Tape/Dolby B), taped by Rango Keshavan.



Thanks to Rango for the patches and Charlie for providing this source.


edited and mastered
SIRMick
August 2017


shntool output:

    length     expanded size    cdr  WAVE problems  fmt   ratio  filename
     3:24.70       36150284 B   ---   --   ---xx   flac  0.4288  gd1983-05-14s1t01.flac
     9:15.30       97972604 B   ---   --   ---xx   flac  0.5754  gd1983-05-14s1t02.flac
    10:41.07      113088908 B   ---   --   ---xx   flac  0.5495  gd1983-05-14s1t03.flac
     3:16.15       34609724 B   ---   --   ---xx   flac  0.5832  gd1983-05-14s1t04.flac
     5:04.34       53705612 B   ---   --   ---xx   flac  0.6055  gd1983-05-14s1t05.flac
     1:36.59       17073212 B   ---   --   ---xx   flac  0.4647  gd1983-05-14s1t06.flac
     9:26.73      100014140 B   ---   --   ---xx   flac  0.5652  gd1983-05-14s1t07.flac
     5:28.51       57979196 B   ---   --   ---xx   flac  0.5878  gd1983-05-14s1t08.flac
     6:29.06       68633756 B   ---   --   ---xx   flac  0.6236  gd1983-05-14s1t09.flac
     0:35.30        6244604 B   ---   --   ---xx   flac  0.4184  gd1983-05-14s2t01.flac
    12:44.72      134938988 B   ---   --   ---xx   flac  0.6236  gd1983-05-14s2t02.flac
    12:32.35      132735164 B   ---   --   ---xx   flac  0.6278  gd1983-05-14s2t03.flac
     4:59.36       52828316 B   ---   --   ---xx   flac  0.5601  gd1983-05-14s2t04.flac
     6:10.60       65409164 B   ---   --   ---xx   flac  0.6092  gd1983-05-14s2t05.flac
     6:13.64       65947772 B   ---   --   ---xx   flac  0.4592  gd1983-05-14s2t06.flac
     6:50.09       72345212 B   ---   --   ---xx   flac  0.4313  gd1983-05-14s2t07.flac
     7:05.40       75064124 B   ---   --   ---xx   flac  0.6109  gd1983-05-14s2t08.flac
     3:50.22       40623788 B   ---   --   ---xx   flac  0.6319  gd1983-05-14s2t09.flac
    10:00.40      105934124 B   ---   --   ---xx   flac  0.5924  gd1983-05-14s2t10.flac
    10:34.28      111903500 B   ---   --   ---xx   flac  0.6384  gd1983-05-14s2t11.flac
     3:20.00       35280044 B   ---   --   ---xx   flac  0.4575  gd1983-05-14s2t12.flac
     4:44.56       50229356 B   ---   --   ---xx   flac  0.6365  gd1983-05-14s2t13.flac
   144:26.12     1528711592 B                            0.5776  (22 files)


flac fingerprints:

gd1983-05-14s1t01.flac:e8c9a49895455a457c6a9853e18def69
gd1983-05-14s1t02.flac:f6122f2a2a6809732c20c6b224ba93a5
gd1983-05-14s1t03.flac:34ed5c85c75623113aaa4472b6bc0709
gd1983-05-14s1t04.flac:8de97113e269df9641e53476b465184b
gd1983-05-14s1t05.flac:56ca69e31b96a8b9475f071722a5da17
gd1983-05-14s1t06.flac:cc3f8b1c87b553d2cf3068f859c444a8
gd1983-05-14s1t07.flac:451a09703e796ae9b868f8b300503de9
gd1983-05-14s1t08.flac:0ab1eabd7a131ec446e266a38880a143
gd1983-05-14s1t09.flac:dcfd578caed9697316cc8bfe45b22fa0
gd1983-05-14s2t01.flac:ed8873eaa121787a5e75dd76a008884a
gd1983-05-14s2t02.flac:4225066b99f2d0e784b967122ad01bec
gd1983-05-14s2t03.flac:58d6603e1fbaf0f6125bc4ff03a4834f
gd1983-05-14s2t04.flac:bc8caba9243ab044161e05b6e01451fb
gd1983-05-14s2t05.flac:4b97add932fb93c6ff1ce6119221b25a
gd1983-05-14s2t06.flac:0e0e56c161f04c0fcd1fd43658f92d46
gd1983-05-14s2t07.flac:6263f100b06a031c84932e8289e0c129
gd1983-05-14s2t08.flac:58896b3fefda2a7395d20796264b0ca5
gd1983-05-14s2t09.flac:aa411e2dd3048245c3c860dce3c936a2
gd1983-05-14s2t10.flac:45fc3165ef5a3971dde6b46771ee7a6e
gd1983-05-14s2t11.flac:d205611c9e882e49ae7a649938ac7098
gd1983-05-14s2t12.flac:2fd31039ef2291e1a23a4c3434d2e337
gd1983-05-14s2t13.flac:cf666e519e06e1635fb43828626f2b2a


Show Checksums
ffp
gd1983-05-14s1t01.flac:e8c9a49895455a457c6a9853e18def69
gd1983-05-14s1t02.flac:f6122f2a2a6809732c20c6b224ba93a5
gd1983-05-14s1t03.flac:34ed5c85c75623113aaa4472b6bc0709
gd1983-05-14s1t04.flac:8de97113e269df9641e53476b465184b
gd1983-05-14s1t05.flac:56ca69e31b96a8b9475f071722a5da17
gd1983-05-14s1t06.flac:cc3f8b1c87b553d2cf3068f859c444a8
gd1983-05-14s1t07.flac:451a09703e796ae9b868f8b300503de9
gd1983-05-14s1t08.flac:0ab1eabd7a131ec446e266a38880a143
gd1983-05-14s1t09.flac:dcfd578caed9697316cc8bfe45b22fa0
gd1983-05-14s2t01.flac:ed8873eaa121787a5e75dd76a008884a
gd1983-05-14s2t02.flac:4225066b99f2d0e784b967122ad01bec
gd1983-05-14s2t03.flac:58d6603e1fbaf0f6125bc4ff03a4834f
gd1983-05-14s2t04.flac:bc8caba9243ab044161e05b6e01451fb
gd1983-05-14s2t05.flac:4b97add932fb93c6ff1ce6119221b25a
gd1983-05-14s2t06.flac:0e0e56c161f04c0fcd1fd43658f92d46
gd1983-05-14s2t07.flac:6263f100b06a031c84932e8289e0c129
gd1983-05-14s2t08.flac:58896b3fefda2a7395d20796264b0ca5
gd1983-05-14s2t09.flac:aa411e2dd3048245c3c860dce3c936a2
gd1983-05-14s2t10.flac:45fc3165ef5a3971dde6b46771ee7a6e
gd1983-05-14s2t11.flac:d205611c9e882e49ae7a649938ac7098
gd1983-05-14s2t12.flac:2fd31039ef2291e1a23a4c3434d2e337
gd1983-05-14s2t13.flac:cf666e519e06e1635fb43828626f2b2a
flac-md5
4a09b986d2c23196c21d9abd636b4f7e *gd1983-05-14s1t01.flac
a9697842d5d10e43a0cda22e12003d19 *gd1983-05-14s1t02.flac
672704cc9bad561f524bc7b1b45315c9 *gd1983-05-14s1t03.flac
20a73dbb242e4a9caa5566c44ca081f0 *gd1983-05-14s1t04.flac
95a9c04d97ae4884b741e5a841389a6c *gd1983-05-14s1t05.flac
2327e1150c1e3f5947da09d89edb9836 *gd1983-05-14s1t06.flac
b5ca7edcdbe2a5411b283c600efdc0f9 *gd1983-05-14s1t07.flac
c543d03b3f60e4e1db159c1f8601ed6f *gd1983-05-14s1t08.flac
be154baad154f5fed71c584fef1556e9 *gd1983-05-14s1t09.flac
b2aecd592faa8164a0848a6fcfb35e13 *gd1983-05-14s2t01.flac
e7a20ee662cf53018f425cffe780f86c *gd1983-05-14s2t02.flac
ea92d002187a01feb256791b10af6dbe *gd1983-05-14s2t03.flac
7b919c9a659acee9eb2319e71612266b *gd1983-05-14s2t04.flac
7a9d5711bf29423344d33ba8c2cad979 *gd1983-05-14s2t05.flac
4159788e661d89cee553b0b30cc22b84 *gd1983-05-14s2t06.flac
57fcb5b7be7ccadc70ea276e8a8d16b5 *gd1983-05-14s2t07.flac
c4fac236bfd23f423a736c18e1472258 *gd1983-05-14s2t08.flac
55ccaeba2f0a452284829134a0b7d161 *gd1983-05-14s2t09.flac
50173567a3ca01304a54de93b2e74559 *gd1983-05-14s2t10.flac
4f5c3eeff925bd93b0d0e34576f887fe *gd1983-05-14s2t11.flac
1df5f959290744c515917e71ff6bc04b *gd1983-05-14s2t12.flac
84a6d263b764818899ecffede671e241 *gd1983-05-14s2t13.flac

Comments
Add Comment
Other Sources (comments)
FOB: 3 Sennheiser 421's >... (1) FOB: Sennheiser 421's >... (0) FOB Sennheiser 421s>Sony... (0) *Set 1 Only*
...
(1) flac16; Master:... (0) flac16; Set 1 only,... (0) flac16; Recording... (0) flac16; Recording... (0) flac16; Source:... (0) flac16/48kHz;... (1) flac24/48 Master:... (0) flac16/44.1 ... (0)
Date User Comment
08/02/2017 Grateful Darkstar Mics used were Senn 441's not Schoeps