Browse Collections Artists Sources   Search Dates

Add Show    List Management    Help


Phish 08/01/17
Madison Square Garden, New York, NY
Comments Add Comment    Source Collectors    Add to Collection    Add to Want List    History
Source # 138940 Other Sources
Entered by Matt Vernon
Checksums ffp
Disc Counts 0 / 0
Media Size
Date Circulated
Date Added

08/02/2017
Source Summary flac16 44.1khz Source: Schoeps CCM4V's>Lunatec V2>Benchmark AD2K> Sound Devices 722 (24/44). BOB/OTS/DFC/KFC/ZFC/AARP Section 2, Row 6, Seat 9, 9 1/2' High. DSP: Sound Devices 722>Sound Forge 10.0>CD Wave>flac(16). ID3 Tagged In Foobar 2000. Recorded and Seeded By: Z-Man 
Source Information - Download Text | Download Zip
Phish
Madison Square Garden
New York City, New York
8/1/2017

Source: Schoeps CCM4V's>Lunatec V2>Benchmark AD2K>
Sound Devices 722 (24/44)
BOB/OTS/DFC/KFC/ZFC/AARP Section 2, Row 6, Seat 9, 9 1/2' High
DSP: Sound Devices 722>Sound Forge 10.0>CD Wave>flac(16)
ID3 Tagged In Foobar 2000
Recorded By: Z-Man
Seeded By: Z-Man

Disc I 1st Set

01 O Canada (Canadian National Anthem)  >
02 Crowd Control
03 Sugar Shack
04 When The Circus Comes To Town
05 Daniel Saw The Stone
06 Army Of One
07 The Wedge
08 Guelah Papyrus >
09 Maple Leaf Rag >
10 Guelah Papyrus
11 McGrupp >
12 Limb By Limb >
13 Walk Away

Disc II 2nd Set

01 Golden Age >
02 Leaves

Disc III 2nd Set Con't

01 Swept Away >
02 Steep >
03 46 Days  >
04 *Drum Solo >
05 Jam >
06 Piper >
07 46 Days >
08 Possum
Encore:
09 Rock N' Roll Suicide

*  With Mike, Trey, And Page On Drums

phish2017-08-01d01t01.flac:525a948702c7e44497b84d6c58dbd5b1
phish2017-08-01d01t02.flac:e4caee97e2e1ff9b393a288de1fe5479
phish2017-08-01d01t03.flac:e1e0795a03e149a0667969c7cf3e6381
phish2017-08-01d01t04.flac:d82f1832e5c1e088157026de972b285a
phish2017-08-01d01t05.flac:01e667709aa67565b92b3f6356bd1149
phish2017-08-01d01t06.flac:9aa8d3cefb2aa6a1d7e2de81057c12b3
phish2017-08-01d01t07.flac:d4b6ca991372f9fa4b597fb79e49a5d5
phish2017-08-01d01t08.flac:54b04974b6abe81d143bab9c25e71eab
phish2017-08-01d01t09.flac:0343b46617725bcdf155201d3faff056
phish2017-08-01d01t10.flac:73833a130d81a2d411141ca3e53a0235
phish2017-08-01d01t11.flac:72db562dfeff0ae15dca5e16b0cfe3ca
phish2017-08-01d01t12.flac:9ce5ecba4d09045ce740628b21212e8d
phish2017-08-01d01t13.flac:65a341d79939155791d405149f671e70
phish2017-08-01d02t01.flac:144bc8d00a57b6e01af1323fa82a47ed
phish2017-08-01d02t02.flac:afd3d95cdfc9a38d9a74548864993ac6
phish2017-08-01d03t01.flac:109be917a346c1f4a8011d28e40145d0
phish2017-08-01d03t02.flac:a0e38c50e2a8ef4b994f1ab2b41f70b5
phish2017-08-01d03t03.flac:5b130a3ef400f8bb73895923d86157e0
phish2017-08-01d03t04.flac:dafffd772b676cc7eda6926367d4ceaf
phish2017-08-01d03t05.flac:56f97df357ce0999b13158b545a6ef7e
phish2017-08-01d03t06.flac:ec72031243a289a9407f004d2d5c5c9c
phish2017-08-01d03t07.flac:d93939071a8b5bd85f9200d24a1a23c3
phish2017-08-01d03t08.flac:368910a3b6e21d111ba960e0d42ba349
phish2017-08-01d03t09.flac:ddeee484f2263da45f08de57dfd9c1ec

length     expanded size    cdr  WAVE problems  fmt   ratio  filename
     2:23.37       25312268 B   ---   --   ---xx   flac  0.4412  phish2017-08-01d01t01.flac
     5:31.65       58541324 B   ---   --   ---xx   flac  0.4863  phish2017-08-01d01t02.flac
     6:40.18       70602380 B   ---   --   ---xx   flac  0.4572  phish2017-08-01d01t03.flac
     5:11.74       55034492 B   ---   --   ---xx   flac  0.4248  phish2017-08-01d01t04.flac
     3:44.21       39563036 B   ---   --   ---xx   flac  0.4645  phish2017-08-01d01t05.flac
     4:52.09       51530012 B   ---   --   ---xx   flac  0.4450  phish2017-08-01d01t06.flac
     7:29.69       79365932 B   ---   --   ---xx   flac  0.4730  phish2017-08-01d01t07.flac
     4:24.11       46595516 B   ---   --   ---xx   flac  0.4372  phish2017-08-01d01t08.flac
     0:41.23        7286540 B   ---   --   ---xx   flac  0.3952  phish2017-08-01d01t09.flac
     1:26.63       15318620 B   ---   --   ---xx   flac  0.4750  phish2017-08-01d01t10.flac
     8:28.08       89630060 B   ---   --   ---xx   flac  0.4457  phish2017-08-01d01t11.flac
     9:11.55       97325804 B   ---   --   ---xx   flac  0.4620  phish2017-08-01d01t12.flac
     7:51.28       83150300 B   ---   --   ---xx   flac  0.5075  phish2017-08-01d01t13.flac
    20:07.31      212987756 B   ---   --   ---xx   flac  0.4383  phish2017-08-01d02t01.flac
     9:13.59       97688012 B   ---   --   ---xx   flac  0.4298  phish2017-08-01d02t02.flac
     6:26.35       68172764 B   ---   --   ---xx   flac  0.3714  phish2017-08-01d03t01.flac
     7:12.15       76240124 B   ---   --   ---xx   flac  0.4482  phish2017-08-01d03t02.flac
     7:30.37       79467068 B   ---   --   ---xx   flac  0.4418  phish2017-08-01d03t03.flac
     0:48.43        8568380 B   ---   --   ---xx   flac  0.4558  phish2017-08-01d03t04.flac
     3:42.55       39290204 B   ---   --   ---xx   flac  0.4102  phish2017-08-01d03t05.flac
    11:40.67      123637628 B   ---   --   ---xx   flac  0.4527  phish2017-08-01d03t06.flac
     1:22.73       14636540 B   ---   --   ---xx   flac  0.4563  phish2017-08-01d03t07.flac
     9:48.67      103880828 B   ---   --   ---xx   flac  0.4835  phish2017-08-01d03t08.flac
     4:24.26       46630796 B   ---   --   ---xx   flac  0.4287  phish2017-08-01d03t09.flac
   150:16.14     1590456384 B                            0.4493  (24 files)
Show Checksums
ffp
phish2017-08-01d01t01.flac:525a948702c7e44497b84d6c58dbd5b1
phish2017-08-01d01t02.flac:e4caee97e2e1ff9b393a288de1fe5479
phish2017-08-01d01t03.flac:e1e0795a03e149a0667969c7cf3e6381
phish2017-08-01d01t04.flac:d82f1832e5c1e088157026de972b285a
phish2017-08-01d01t05.flac:01e667709aa67565b92b3f6356bd1149
phish2017-08-01d01t06.flac:9aa8d3cefb2aa6a1d7e2de81057c12b3
phish2017-08-01d01t07.flac:d4b6ca991372f9fa4b597fb79e49a5d5
phish2017-08-01d01t08.flac:54b04974b6abe81d143bab9c25e71eab
phish2017-08-01d01t09.flac:0343b46617725bcdf155201d3faff056
phish2017-08-01d01t10.flac:73833a130d81a2d411141ca3e53a0235
phish2017-08-01d01t11.flac:72db562dfeff0ae15dca5e16b0cfe3ca
phish2017-08-01d01t12.flac:9ce5ecba4d09045ce740628b21212e8d
phish2017-08-01d01t13.flac:65a341d79939155791d405149f671e70
phish2017-08-01d02t01.flac:144bc8d00a57b6e01af1323fa82a47ed
phish2017-08-01d02t02.flac:afd3d95cdfc9a38d9a74548864993ac6
phish2017-08-01d03t01.flac:109be917a346c1f4a8011d28e40145d0
phish2017-08-01d03t02.flac:a0e38c50e2a8ef4b994f1ab2b41f70b5
phish2017-08-01d03t03.flac:5b130a3ef400f8bb73895923d86157e0
phish2017-08-01d03t04.flac:dafffd772b676cc7eda6926367d4ceaf
phish2017-08-01d03t05.flac:56f97df357ce0999b13158b545a6ef7e
phish2017-08-01d03t06.flac:ec72031243a289a9407f004d2d5c5c9c
phish2017-08-01d03t07.flac:d93939071a8b5bd85f9200d24a1a23c3
phish2017-08-01d03t08.flac:368910a3b6e21d111ba960e0d42ba349
phish2017-08-01d03t09.flac:ddeee484f2263da45f08de57dfd9c1ec

Comments
Add Comment
Other Sources (comments)
flac16 44.1khz ... (0) flac24 48khz ... (0) flac24 96khz Field:... (0) flac16 48khz ... (0) flac24 96khz ... (0) flac16 44.1khz ... (1) flac16 44.1khz... (0)
Date User Comment