Browse Collections Artists Sources   Search Dates

Add Show    List Management    Help


Grateful Dead 08/11/87
Red Rocks Amphitheatre, Morrison, CO
Comments Add Comment    Source Collectors    Add to Collection    Add to Want List    History
Source # 138972 Other Sources
Entered by Matt Vernon
Checksums ffp , flac-md5
Disc Counts 0 / 0
Media Size Compressed: 848 MB (889192448 bytes)
Uncompressed: 1.35 GB (1445547092 bytes)
Date Circulated
Date Added
08/05/2017
08/05/2017
Source Summary flac16; Patched/Pitch Corrected Audience (original shnid = 138303) FOB Schoeps CMC32s, mics spaced 8' -> Apogee mod Sony PCMF1 -> Sony Betamax; Taper unknown; Dougal Donaldson Transfer from his PCM clone of the master; Sony Beta SL-HF360 > Sony PCM501 > analog outputs > MAudio soundcard > Soundforge > CD Architect > CD @44.1 kHz; Subsequent transfer from CD > SFDIF > MAudio > Soundforge, WAV file converted to FLAC; Joe Noel: Label, Patch, Pack, re-Track in Audacity; Checksum & tags created in xACT - pitch correction and patches by Kevin Tobin 
  Archive
Source Information - Download Text | Download Zip
Grateful Dead
August 11, 1987
Red Rocks Amphitheater
Morrison, CO

Patched and pitch corrected audience

Set 1:
d1t01 - Cold Rain and Snow ->
d1t02 - Little Red Rooster
d1t03 - Tons of Steel
d1t04 - High Time
d1t05 - When I Paint My Masterpiece
d1t06 - When Push Comes To Shove
d1t07 - Let It Grow

Set 2:
d2t01 - Crazy Fingers ->
d2t02 - Sampson & Delilah
d2t03 - Ship of Fools
d2t04 - Playing in the Band ->
d2t05 - China Doll ->
d2t06 - Drums ->
d3t01 - Space ->
d3t02 - All Along The Watchtower ->
d3t03 - Goin' Down The Road Feelin' Bad ->
d3t04 - Around and Around ->
d3t05 - Sugar Magnolia

Encore:
d3t06 - Black Muddy River

Jerry Garcia - Guitar
Bob Weid - Guitar
Brent Mydland - Keyboards
Phil Lesh - Bass
Bill Kreutzmann - Drums
Mickey Hart - Drums

Audio Information:
Original  AUD (shnid = 138303)

From the Ammons Archive
FOB Schoeps CMC32s, mics spaced 8' -> Apogee mod Sony PCMF1 -> Sony Betamax.  Taper unknown
Dougal Donaldson Transfer from his PCM clone of the master.
Sony Beta SL-HF360 > Sony PCM501 > analog outputs > MAudio soundcard > Soundforge > CD Architect > CD @44.1 kHz. Subsequent transfer from CD > SFDIF > MAudio > Soundforge, WAV file converted to FLAC.
Joe Noel: Label, Patch, Pack, re-Track in Audacity
Checksum & tags created in xACT.
Seeded to shnflac.com on May 17, 2017 by Joe Noel

AUD was patched with the following:
AUD (shnid = 81953)
AUD Source: Nakamichi CM-100's with CP-4 shotgun capsules > Marantz 420
cassette deck, with Dolby On. Set up in 15th row, stage left side of the
soundboard. Taped by Jon Pasternak.

Transfer: MAC > Nakamichi Dragon (Dolby on) > Tascam CDRW-5000 > CDR >
EAC > Soundforge > CD-Wave > TLH v.1.0.0.72 (for SBE-OK, checksums and
FLAC compression) > FLAC, January 2007.
---------------------------------------------------------
- Mixed by [email protected]
- FLAC conversion 05-AUG-2017 - Trader Little Helper
- Tagged 05-AUG-2017 - Tag&Rename
---------------------------------------------------------
Very minor patching. Speedwise the audience was a extremely fast when compared to other recordings - 1.3 seconds per minute.

    length     expanded size    cdr  WAVE problems  fmt   ratio  filename
     6:00.17       63544028 B   ---   --   -----    wav  1.0000  gd1987-08-11d1t01.wav
     9:25.65       99818924 B   ---   --   -----    wav  1.0000  gd1987-08-11d1t02.wav
     5:14.22       55441388 B   ---   --   -----    wav  1.0000  gd1987-08-11d1t03.wav
     8:02.15       85060124 B   ---   --   -----    wav  1.0000  gd1987-08-11d1t04.wav
     4:32.47       48091388 B   ---   --   -----    wav  1.0000  gd1987-08-11d1t05.wav
     5:07.64       54305372 B   ---   --   -----    wav  1.0000  gd1987-08-11d1t06.wav
    12:47.55      135428204 B   ---   --   -----    wav  1.0000  gd1987-08-11d1t07.wav
     8:12.30       86859404 B   ---   --   -----    wav  1.0000  gd1987-08-11d2t01.wav
     6:26.36       68175116 B   ---   --   -----    wav  1.0000  gd1987-08-11d2t02.wav
     9:31.45      100830284 B   ---   --   -----    wav  1.0000  gd1987-08-11d2t03.wav
     8:08.54       86210252 B   ---   --   -----    wav  1.0000  gd1987-08-11d2t04.wav
     5:23.67       57134828 B   ---   --   -----    wav  1.0000  gd1987-08-11d2t05.wav
     8:26.02       89263148 B   ---   --   -----    wav  1.0000  gd1987-08-11d2t06.wav
     7:27.51       78970796 B   ---   --   -----    wav  1.0000  gd1987-08-11d3t01.wav
     4:49.15       51014924 B   ---   --   -----    wav  1.0000  gd1987-08-11d3t02.wav
     6:25.65       68066924 B   ---   --   -----    wav  1.0000  gd1987-08-11d3t03.wav
     3:45.31       39762956 B   ---   --   -----    wav  1.0000  gd1987-08-11d3t04.wav
    10:24.08      110092460 B   ---   --   -----    wav  1.0000  gd1987-08-11d3t05.wav
     6:22.39       67476572 B   ---   --   -----    wav  1.0000  gd1987-08-11d3t06.wav
   136:34.53     1445547092 B                            1.0000  (19 files)


Show Checksums
ffp
gd1987-08-11d1t01.flac:ce5a97cec8b786963e613c0a419801e7
gd1987-08-11d1t02.flac:80cb782bfe9d62a9fec82b24a4f5cd64
gd1987-08-11d1t03.flac:b76757c5545f1d852f5e94f8a9aacfc9
gd1987-08-11d1t04.flac:acb5fee8c57a23f70bd14a5b5f012e44
gd1987-08-11d1t05.flac:137be004ff4975f71cc89820f7fa2133
gd1987-08-11d1t06.flac:870858e1a2519188c8f901a7a2769d43
gd1987-08-11d1t07.flac:22ed198299fd3e730032d6496aa82473
gd1987-08-11d2t01.flac:1c6aff67ee6503c831723111b7714668
gd1987-08-11d2t02.flac:5c057294d8c18789fd78f71a1a7ee300
gd1987-08-11d2t03.flac:6dabbdc158ea00c42e56c81baf7ca1d3
gd1987-08-11d2t04.flac:d449c6e3a3f52c07cca5728e143467f8
gd1987-08-11d2t05.flac:7785984fbd1b57de0381d03510e56e6f
gd1987-08-11d2t06.flac:43f908fc6668a43bcd48210f1a768016
gd1987-08-11d3t01.flac:1df05b3a1d97ece69944586f72fad078
gd1987-08-11d3t02.flac:8c1e251ee5d1130fc042d0051cabcacf
gd1987-08-11d3t03.flac:9bb722514cfdc91806b411cbff5b79e5
gd1987-08-11d3t04.flac:78b91f4306bbd6508f677fe20eb97dab
gd1987-08-11d3t05.flac:cb732328608e24a0166c90b74f890082
gd1987-08-11d3t06.flac:a2e5b6f2f4114b7e33f5eb721289e6f6
flac-md5
5b521764d48d281f9b1d4e07fcc4c841 *gd1987-08-11d1t01.flac
fb66d5a853b330b91cd8c4888a921ab2 *gd1987-08-11d1t02.flac
1e3c82dbf8933700bf17dbb1c66b625b *gd1987-08-11d1t03.flac
da9846ec580a9ae9bee495cb2006f9c8 *gd1987-08-11d1t04.flac
dcd108f5c420777d29739dbd7dc2524a *gd1987-08-11d1t05.flac
f4b241cf2be6a1950e36e914fc9ff066 *gd1987-08-11d1t06.flac
ff1622154a4f68381b81adf41c2c59b0 *gd1987-08-11d1t07.flac
6f35cb70f4e107f7069c118e72ad3e1b *gd1987-08-11d2t01.flac
51a273f7147873966e6c1786216867e9 *gd1987-08-11d2t02.flac
a73ffe9612bff0a2c8a791d33586d527 *gd1987-08-11d2t03.flac
81462999727e25116aca24a374121170 *gd1987-08-11d2t04.flac
7b51e7a516f0ca8e44bf331dcb91bd54 *gd1987-08-11d2t05.flac
ec7cb2feb3cbfdb31cf9353733f1143b *gd1987-08-11d2t06.flac
fc0769b2d0ec68458384a0740b2d9b56 *gd1987-08-11d3t01.flac
a5c1a5df0ce741c37d1320ef60abd7ed *gd1987-08-11d3t02.flac
c5ce01bcc093372d8ece573926cdf136 *gd1987-08-11d3t03.flac
cbf9beadd7b4f718da40f0f412ac7c28 *gd1987-08-11d3t04.flac
40b5bf31442b21c0ba90832eba6643b6 *gd1987-08-11d3t05.flac
0c1d047aaf27eecfbb5db9163a7d9cef *gd1987-08-11d3t06.flac

Comments
Add Comment
Other Sources (comments)
set 2; SBD> PCM> Dat> Cass>... (0) set 1; SBD> PCM> ??> Dat>... (0) SBD -> PCM -> CD -> EAC ->... (0) flac16; AUD Source:... (0) flac16; Source:... (0) flac16; Recording... (0) flac16; FOB Schoeps... (0) flac16; Matrix 2... (0) DTS-Audio-CD 5.1... (0) flac16/48kHz; 5.1... (0) flac16; Source Info:... (0)
Date User Comment